<?xml version="1.0" standalone="no"?>
<!DOCTYPE svg PUBLIC "-//W3C//DTD SVG 1.1//EN" "http://www.w3.org/Graphics/SVG/1.1/DTD/svg11.dtd">
<svg xmlns="http://www.w3.org/2000/svg">
<metadata>Copyright (C) 2021 by original authors @ fontello.com</metadata>
<defs>
<font id="fontello" horiz-adv-x="1000" >
<font-face font-family="fontello" font-weight="400" font-stretch="normal" units-per-em="1000" ascent="850" descent="-150" />
<missing-glyph horiz-adv-x="1000" />
<glyph glyph-name="spin1" unicode="&#xe800;" d="M496 850c-176 0-331-90-421-226-18-27-33-55-46-85-12-29-21-60-28-92 0 0 0-1 0-1l0 0 0 0c0-1 0-2 0-2 0-7 5-12 11-12l101 0c5 0 10 4 11 9 29 113 109 206 214 253 20 10 41 17 63 23 31 7 62 11 95 11l0 0 0 0 0 0c25 0 50-2 74-7 5-1 10-2 14-3 6-1 10-3 14-4l0 0c5-1 11 1 13 6l51 87c0 0 1 1 1 2 2 6-1 13-7 15-22 7-43 13-65 17-5 1-9 1-13 2-27 5-54 7-82 7l0 0 0 0z m327-114c-5 0-9-2-11-6l-50-87c-3-4-2-10 2-14 29-29 54-63 73-101 4-7 7-14 11-22 19-46 30-97 30-151l0 0 0 0c0-77-22-149-62-209-7-11-15-23-24-33-9-11-18-21-28-31l0 0 0 0 0 0c-4-4-5-10-2-14l50-87c0-1 1-2 2-3 4-5 11-5 16-1 58 52 104 117 134 190 6 15 11 29 15 44 14 46 21 94 21 144 0 108-34 209-92 291-11 16-23 31-37 46-13 14-26 28-41 41l0 0c-1 1-1 1-2 1-2 1-4 2-5 2z m-811-468l0 0c-1 0-2 0-3 0-6-1-10-8-9-14 34-166 149-302 302-366 30-12 61-21 93-28 32-6 66-10 100-10l0 0 0 0c40 0 79 5 117 14 7 1 14 3 22 5 6 2 13 5 20 7 1 0 2 1 3 1 6 3 8 10 4 16l-50 87c-3 5-8 7-13 6-14-4-28-7-42-9-3-1-6-1-8-2-18-2-35-3-53-3l0 0 0 0c-128 0-242 63-311 160-1 0-1 0-1 0-13 19-25 40-35 61-10 21-18 43-24 65-1 6-6 10-11 10l-101 0z" horiz-adv-x="1000" />

<glyph glyph-name="spin2" unicode="&#xe801;" d="M46 144l0 0c0 0-1 0-1 0-8 18-15 37-21 55-6 19-11 38-15 58-19 99-8 203 35 298 3 6 10 8 15 5 1 0 2 0 2-1l0 0 80-59c5-3 6-9 4-14-5-12-9-25-12-37-4-13-7-26-9-40-11-67-3-137 23-201 2-5 0-10-4-13l0 0-80-56c-5-4-12-2-16 3-1 0-1 1-1 2l0 0z m120 574l0 0c0 1 0 1 0 1 15 13 30 25 46 37 16 11 33 22 51 31 89 50 192 72 297 60 6-1 10-6 10-13 0-1-1-1-1-2l0 0-31-94c-2-5-8-8-13-7-13 0-27 0-40 0-14-1-27-2-40-4-68-11-133-40-186-84-4-3-10-3-14 0l0 0-79 58c-5 3-6 11-2 16 0 0 1 1 2 1l0 0z m588 65l0 0c0 0 1 0 1 0 17-10 34-21 50-32 16-12 31-25 46-38 74-69 127-160 148-262 2-6-2-12-9-13-1 0-1 0-2 0l0 0-100 1c-5 0-10 4-11 9-3 13-8 26-12 38-5 12-10 25-17 36-31 61-78 113-137 150-5 3-6 8-5 13l0 0 31 92c2 6 9 9 15 7 1 0 2-1 2-1l0 0z m244-535l0 0c0 0 0 0 0 0-4-20-9-39-15-57-7-19-14-37-22-55-44-92-114-170-205-221-6-3-13-1-16 4 0 1-1 2-1 2l0 0-30 94c-2 6 1 12 6 14 11 7 22 15 32 23 11 9 21 18 30 27 49 48 84 109 101 176 2 5 6 8 11 8l0 0 98-1c6 0 11-5 11-11 0-1 0-2 0-3l0 0z m-438-395l0 0c0 0 0 0 0 0-20-2-40-3-60-3-20 0-40 1-59 4-102 12-198 54-276 125-5 4-5 11 0 16 0 0 1 1 1 1l0 0 81 58c5 3 12 2 16-2 10-8 20-16 32-23 11-7 22-14 34-20 62-31 131-45 200-41 6 0 10-3 12-8l0 0 29-92c2-6-1-12-7-14-1-1-2-1-3-1l0 0z" horiz-adv-x="1000" />

<glyph glyph-name="spin3" unicode="&#xe802;" d="M494 850c-266 0-483-210-494-472-1-19 13-20 13-20l84 0c16 0 19 10 19 18 10 199 176 358 378 358 107 0 205-45 273-118l-58-57c-11-12-11-27 5-31l247-50c21-5 46 11 37 44l-58 227c-2 9-16 22-29 13l-65-60c-89 91-214 148-352 148z m409-508c-16 0-19-10-19-18-10-199-176-358-377-358-108 0-205 45-274 118l59 57c10 12 10 27-5 31l-248 50c-21 5-46-11-37-44l58-227c2-9 16-22 30-13l64 60c89-91 214-148 353-148 265 0 482 210 493 473 1 18-13 19-13 19l-84 0z" horiz-adv-x="1000" />

<glyph glyph-name="spin4" unicode="&#xe803;" d="M498 850c-114 0-228-39-320-116l0 0c173 140 428 130 588-31 134-134 164-332 89-495-10-29-5-50 12-68 21-20 61-23 84 0 3 3 12 15 15 24 71 180 33 393-112 539-99 98-228 147-356 147z m-409-274c-14 0-29-5-39-16-3-3-13-15-15-24-71-180-34-393 112-539 185-185 479-195 676-31l0 0c-173-140-428-130-589 31-134 134-163 333-89 495 11 29 6 50-12 68-11 11-27 17-44 16z" horiz-adv-x="1001" />

<glyph glyph-name="spin5" unicode="&#xe804;" d="M462 850c-6 0-11-5-11-11l0-183 0 0c0-6 5-11 11-11l69 0c1 0 1 0 1 0 7 0 12 5 12 11l0 183 0 0c0 6-5 11-12 11l-69 0c0 0 0 0-1 0z m250-47c-4 1-8-2-10-5l-91-158 0 0c-4-6-2-13 4-16l60-34c0-1 0-1 0-1 6-3 13-1 16 4l91 158c3 6 2 13-4 16l-61 35c-1 1-3 1-5 1z m-428-2c-2 0-4-1-6-2l-61-35c-5-3-7-10-4-16l91-157c0 0 0 0 0 0 3-6 10-8 16-5l61 35c5 4 7 11 4 16l-91 157c0 1 0 1 0 1-2 4-6 6-10 6z m620-163c-2 0-4 0-6-1l-157-91c0 0 0 0 0 0-6-3-8-10-5-16l35-61c4-5 11-7 16-4l157 91c1 0 1 0 1 0 6 3 7 11 4 16l-35 61c-2 4-6 6-10 5z m-810-4c-5 0-9-2-11-6l-35-61c-3-5-1-12 4-15l158-91 0 0c6-4 13-2 16 4l35 60c0 0 0 0 0 0 3 6 1 13-4 16l-158 91c-2 1-4 2-5 2z m712-235l0 0c-6 0-11-5-11-11l0-69c0-1 0-1 0-1 0-7 5-12 11-12l183 0 0 0c6 0 11 5 11 12l0 69c0 0 0 0 0 1 0 6-5 11-11 11l-183 0z m-794-5l0 0c-7 0-12-5-12-12l0-69c0 0 0 0 0-1 0-6 5-11 12-11l182 0 0 0c6 0 11 5 11 11l0 69c0 1 0 1 0 1 0 7-5 12-11 12l-182 0z m772-153c-4 0-8-2-10-6l-34-60c-1 0-1 0-1 0-3-6-1-13 4-16l158-91c6-3 13-1 16 4l35 61c3 5 1 12-4 15l-158 92 0 0c-2 1-4 1-6 1z m-566-5c-1 0-3 0-5-1l-157-91c0 0-1 0-1 0-5-3-7-10-4-16l35-61c3-5 10-7 16-4l157 91c0 0 0 0 0 0 6 3 8 10 5 16l-35 61c-3 3-7 6-11 5z m468-121c-2 0-4 0-6-1l-61-35c-5-4-7-11-4-16l91-157c0-1 0-1 0-1 3-6 11-7 16-4l61 35c5 3 7 10 4 16l-91 157c0 0 0 0 0 0-2 4-6 6-10 6z m-367-2c-4 0-8-2-10-6l-91-158c-3-6-1-13 4-16l61-35c5-3 12-1 15 4l92 158 0 0c3 6 1 13-5 16l-60 35c0 0 0 0 0 0-2 1-4 1-6 2z m149-58c-7 0-12-5-12-11l0-183 0 0c0-6 5-11 12-11l69 0c0 0 0 0 1 0 6 0 11 5 11 11l0 183 0 0c0 6-5 11-11 11l-69 0c-1 0-1 0-1 0z" horiz-adv-x="1000" />

<glyph glyph-name="spin6" unicode="&#xe805;" d="M855 9c-189-190-520-172-705 13-190 190-200 494-28 695 11 13 21 26 35 34 36 23 85 18 117-13 30-31 35-76 16-112-5-9-9-15-16-22-140-151-145-379-8-516 153-153 407-121 542 34 106 122 142 297 77 451-83 198-305 291-510 222l0 1c236 82 492-24 588-252 71-167 37-355-72-493-11-15-23-29-36-42z" horiz-adv-x="1000" />

<glyph glyph-name="firefox" unicode="&#xe806;" d="M504-137c-216 0-387 126-466 306-87 200-17 521 139 663l-6-156c8 9 68 12 78-1 32 62 136 109 220 110-32-26-106-124-99-174 40-13 103-13 136-15 10-6 8-40-12-68-27-36-97-49-97-49l8-106-77 38c-26-64 35-120 97-110 69 12 94 57 142 54 49-2 68-29 61-54-7-30-59-25-59-25-44-70-103-100-198-92 144-119 338-11 387 86 50 97 7 242-43 283 59-25 99-51 120-107 11 124-46 266-149 349 193-56 311-205 314-444 3-239-211-488-496-488z" horiz-adv-x="1000" />

<glyph glyph-name="chrome" unicode="&#xe807;" d="M498 850c-147-1-291-67-387-186l154-237c39 111 150 182 267 170l414-22c-42 84-108 157-196 208-79 46-166 67-252 67z m-416-226c-52-79-82-173-82-274 0-250 183-457 423-494l128 252c-116-22-233 39-281 146l-188 370z m885-94l-282-15c76-89 82-221 13-317l-226-347c94-6 190 15 278 66 216 125 304 387 217 613z m-467-11c-93 0-169-76-169-169s76-169 169-169 169 76 169 169-76 169-169 169z" horiz-adv-x="1000" />

<glyph glyph-name="opera" unicode="&#xe808;" d="M426-150c-568 0-568 1000 0 1000s567-1000 0-1000z m0 92c237 0 237 816 0 816s-238-816 0-816z" horiz-adv-x="851" />

<glyph glyph-name="ie" unicode="&#xe809;" d="M844 850c-81-1-181-46-281-106-239 35-498-103-509-386 60 93 224 257 367 301l0-13c-179-90-571-612-360-773 90-69 310 37 344 76 29-5 59-8 89-8 201 0 371 124 424 292l-301 0c-13-56-56-92-121-92-102 0-126 68-126 151l561 0c29 204-114 385-306 439 174 115 363 161 299-104l20 0c35 109 21 191-38 213-18 7-37 10-58 10-1 0-3 0-4 0z m-352-303c79 0 128-48 128-129l-252 0c0 77 46 129 124 129z m-367-422c58-83 149-145 256-171-77-58-226-84-266-52-48 40-36 124 10 223z" horiz-adv-x="944" />

<glyph glyph-name="money" unicode="&#xe80a;" d="M500 825c68 0 131-13 193-38 58-26 111-59 155-104 45-46 79-97 106-159 25-58 38-122 38-189 0-68-13-133-38-193-27-59-61-112-106-156s-97-81-155-105c-62-26-125-39-193-39-67 0-131 13-192 39-59 24-112 60-156 105s-78 97-106 156c-25 60-38 125-38 193 0 67 13 131 38 189 28 62 61 113 106 159 44 45 97 78 156 104 61 25 125 38 192 38z m0-922c60 0 116 11 167 34 53 24 99 53 137 93 40 38 70 84 93 135 22 53 34 111 34 170 0 58-12 114-34 167-23 53-53 97-93 137-38 38-84 69-137 91-51 23-107 33-167 33s-116-10-167-33c-53-22-99-53-137-91-40-40-70-84-93-137-22-53-33-109-33-167 0-59 11-117 33-170 23-51 53-97 93-135 38-40 84-69 137-93 51-23 108-34 167-34z m0 539c-13 0-23-4-31-15-11-8-15-18-15-31 0-7 6-13 17-17 10-4 23-10 40-17 18-6 40-15 63-27 23-13 34-35 34-62 0-26-8-46-24-66-14-18-31-31-53-37v-36c0-9-4-15-9-22-7-5-13-7-22-7s-15 2-21 7c-6 7-10 13-10 22v36c-22 6-38 19-53 37-15 20-24 40-24 66 0 9 4 15 9 21 6 6 15 9 23 9s14-3 21-9c6-6 9-12 9-21 0-13 4-26 15-33 8-9 18-13 31-13s24 4 31 13c11 7 16 20 16 33 0 7-7 11-18 18-9 3-22 7-40 14-18 6-40 17-63 30-23 12-34 31-34 61 0 23 9 46 24 66 15 16 31 29 53 35v36c0 9 4 17 10 24 6 4 12 7 21 7s15-3 22-7c5-7 9-15 9-24v-36c22-6 39-19 53-35 16-20 24-43 24-66 0-9-4-14-8-21-7-6-16-11-24-11-8 0-14 5-21 11s-8 12-8 21c0 13-5 23-16 31-7 11-18 15-31 15z" horiz-adv-x="1000" />

<glyph glyph-name="shipping" unicode="&#xe80b;" d="M958 379c8 0 16-4 20-11 7-6 11-12 11-20v-173c0-23-9-45-27-61-15-18-37-26-61-26h-48c-6-24-20-46-39-61-21-16-44-27-72-27-28 0-49 11-72 27-20 15-33 37-39 61h-211c-6-24-20-46-39-61-21-16-44-27-72-27-28 0-51 11-72 27-19 15-33 37-39 61h-159c-8 0-14 4-20 8-5 6-7 14-7 22 0 7 2 14 7 20 6 6 12 8 20 8h159c6 25 20 46 39 62 21 17 44 25 72 25 28 0 51-8 72-25 19-16 33-37 39-62h211c6 25 19 46 39 62 23 17 44 25 72 25 28 0 51-8 72-25 19-16 33-37 39-62h48c7 0 13 4 19 10 7 4 11 11 11 19v144h-348c-8 0-14 4-19 10-7 6-9 11-9 19v231c0 8-4 15-10 21s-12 8-20 8h-288c-8 0-15 2-21 9s-8 14-8 19c0 8 2 16 8 22s13 8 21 8h288c24 0 44-8 62-26 16-15 25-36 25-61v-14h130c4 0 8 0 12-2s8-4 10-8l150-176z m-346 0h227l-111 128h-116z m-303-319c16 0 30 4 42 17 9 11 15 25 15 41 0 16-6 30-15 40-12 11-26 17-42 17-16 0-30-6-41-17-10-10-17-24-17-40 0-16 7-30 17-41 11-13 25-17 41-17z m433 0c16 0 30 4 41 17 10 11 16 25 16 41 0 16-6 30-16 40-11 11-25 17-41 17-16 0-30-6-40-17-11-10-17-24-17-40 0-16 6-30 17-41 10-13 24-17 40-17z m-548 434c-9 0-16 2-20 8-6 5-10 11-10 19s4 16 10 22c4 4 11 7 20 7h127c8 0 16-3 22-7 4-6 8-14 8-22s-4-14-8-19c-6-6-14-8-22-8z m-57-115c-9 0-17 1-23 7-4 6-8 12-8 20s4 14 8 19c6 6 14 11 23 11h127c7 0 15-5 19-11 6-5 10-11 10-19s-4-14-10-20c-4-6-12-7-19-7z m112-88c0-8-2-14-8-20s-14-10-21-10h-127c-8 0-14 4-20 10s-11 12-11 20c0 7 4 13 11 20s12 8 20 8h127c7 0 15-2 21-8s8-13 8-20z" horiz-adv-x="1000" />

<glyph glyph-name="support" unicode="&#xe80c;" d="M983 364c6-7 9-15 9-24 0-8-3-14-9-21l-76-82c-2 0-2 0-4-2l-2-2c-7-2-13-4-21-4-6 2-13 4-17 8l-78 82c-4 7-8 13-8 21 0 9 4 17 8 24 7 6 14 8 23 8s15-2 22-8l22-30c0 54-11 105-31 152-20 46-49 88-82 124-36 37-79 64-124 85-49 19-100 29-153 29-55 0-106-10-152-29-49-21-91-48-124-85-36-36-64-78-85-124-21-49-31-100-31-152 0-55 10-105 31-152 21-48 49-91 85-124 33-37 75-64 124-84 46-22 97-33 152-33 34 0 67 4 100 13 31 9 62 22 90 36 30 17 54 36 80 59 23 23 45 49 63 78 4 7 11 11 19 13s16 2 24-2c6-7 10-13 12-22 2-5 0-14-4-20-21-34-45-64-72-91-29-26-59-49-92-68-32-19-67-31-106-42-36-9-74-14-114-14-63 0-122 12-177 35-55 23-101 58-144 98-40 40-73 88-97 142-23 55-35 115-35 178 0 61 12 120 35 175 24 54 57 103 97 145 43 41 89 73 144 95 55 26 114 37 177 37 63 0 120-11 175-37 55-22 104-54 144-95 42-42 73-91 99-145 23-55 34-114 34-175h2l23 30c6 6 15 8 23 8s14-2 21-8z m-641-11c4 4 6 8 8 11s2 6 4 8c0 2 2 5 2 9 0 1 0 3 0 7 0 3 0 7 0 9-2 2-4 4-6 7s-4 4-8 4c-2 2-6 2-10 2s-9 0-13-2c-5 0-9-2-13-7-5 0-8-4-12-6-5-4-11-9-15-13l-40 44c6 7 13 13 18 18 6 4 11 6 15 10 7 3 11 5 15 7 7 2 11 4 16 4 5 2 11 4 18 4s13 0 19 0c8 0 16 0 23-2 9-2 17-4 24-6 5-2 12-7 16-11 6-4 11-9 13-15 4-7 8-12 8-16 3-7 3-13 3-22 0-4 0-11 0-15 0-3-3-8-3-12-2-6-4-11-6-15s-4-9-7-13c-2-4-4-5-8-12-4-4-9-9-13-13-3-6-10-13-21-21-8-8-21-19-35-32v-2h99v-59h-190v46l63 66c8 9 17 17 23 23 7 6 11 13 13 15z m302-150h-70v50h-105v53l109 159h66v-159h29v-53h-29z m-113 103h43v32c0 2 0 6 0 11 0 2 0 8 0 12s2 9 2 11c0 2 0 5 0 5h-2c-3-5-4-9-6-13s-6-9-9-13z" horiz-adv-x="1000" />

<glyph glyph-name="wishlist" unicode="&#xe811;" d="M775 849q126 0 207-80t81-207v-60q0-285-532-653-531 367-531 653v60q0 127 81 207t206 80q81 0 134-30t110-99q58 68 111 99t133 30z" horiz-adv-x="1063" />

<glyph glyph-name="angle-left" unicode="&#xe819;" d="M353 581q0-7-7-12l-234-236 234-235q7-6 7-14t-7-14l-30-30q-5-5-12-5t-14 5l-279 280q-6 5-6 13t6 14l279 278q5 7 14 7t12-7l30-30q7-5 7-14z" horiz-adv-x="357.4" />

<glyph glyph-name="angle-right" unicode="&#xe81a;" d="M353 333q0-8-5-13l-280-280q-6-5-13-5t-14 5l-30 30q-6 7-6 14t6 14l235 235-235 236q-6 5-6 12t6 14l30 30q5 7 14 7t13-7l280-278q5-6 5-14z" horiz-adv-x="357.4" />

<glyph glyph-name="angle-up" unicode="&#xe81b;" d="M627 205q0-8-6-13l-31-31q-6-7-13-7t-15 7l-242 241-242-241q-5-7-14-7t-13 7l-31 31q-7 5-7 13t7 14l287 287q5 6 13 6t14-6l287-287q6-5 6-14z" horiz-adv-x="640.6" />

<glyph glyph-name="angle-down" unicode="&#xe81c;" d="M627 461q0-8-6-14l-287-287q-5-6-14-6t-13 6l-287 287q-7 6-7 14t7 14l31 31q5 6 13 6t14-6l242-241 242 241q6 6 15 6t13-6l31-31q6-6 6-14z" horiz-adv-x="640.6" />

<glyph glyph-name="down-1" unicode="&#xe81d;" d="M427 125q4-10-3-19l-195-215q-6-5-13-5-8 0-13 5l-198 215q-8 9-3 19 5 11 16 11h125v696q0 8 5 13t13 5h107q8 0 13-5t5-13v-696h125q11 0 16-11z" horiz-adv-x="428.6" />

<glyph glyph-name="left-1" unicode="&#xe81e;" d="M1000 404v-108q0-7-5-12t-13-5h-696v-125q0-12-11-17t-19 3l-215 196q-5 5-5 12 0 8 5 14l215 197q9 8 19 4 11-5 11-17v-125h696q8 0 13-5t5-12z" horiz-adv-x="1000" />

<glyph glyph-name="right-1" unicode="&#xe81f;" d="M964 352q0-8-5-14l-215-197q-8-8-19-4-11 5-11 17v125h-696q-8 0-13 5t-5 12v108q0 7 5 12t13 5h696v125q0 12 11 17t19-3l215-195q5-6 5-13z" horiz-adv-x="1000" />

<glyph glyph-name="up-1" unicode="&#xe820;" d="M427 575q-5-11-16-11h-125v-696q0-8-5-13t-13-5h-107q-8 0-13 5t-5 13v696h-125q-12 0-16 11t3 19l195 215q5 5 13 5 7 0 13-5l198-215q7-8 3-19z" horiz-adv-x="428.6" />

<glyph glyph-name="angle-double-left" unicode="&#xe821;" d="M350 82q0-7-6-13l-28-28q-5-5-12-5t-13 5l-260 261q-6 5-6 12t6 13l260 260q5 6 13 6t12-6l28-28q6-5 6-13t-6-12l-219-220 219-219q6-6 6-13z m214 0q0-7-5-13l-28-28q-6-5-13-5t-13 5l-260 261q-6 5-6 12t6 13l260 260q6 6 13 6t13-6l28-28q5-5 5-13t-5-12l-220-220 220-219q5-6 5-13z" horiz-adv-x="571.4" />

<glyph glyph-name="angle-double-right" unicode="&#xe822;" d="M332 314q0-7-5-12l-261-261q-5-5-12-5t-13 5l-28 28q-6 6-6 13t6 13l219 219-219 220q-6 5-6 12t6 13l28 28q5 6 13 6t12-6l261-260q5-5 5-13z m214 0q0-7-5-12l-260-261q-6-5-13-5t-13 5l-28 28q-5 6-5 13t5 13l219 219-219 220q-5 5-5 12t5 13l28 28q6 6 13 6t13-6l260-260q5-5 5-13z" horiz-adv-x="571.4" />

<glyph glyph-name="angle-double-up" unicode="&#xe823;" d="M600 118q0-7-6-13l-28-28q-5-5-12-5t-13 5l-220 219-219-219q-5-5-13-5t-12 5l-28 28q-6 6-6 13t6 13l260 260q5 5 12 5t13-5l260-260q6-6 6-13z m0 214q0-7-6-13l-28-28q-5-5-12-5t-13 5l-220 220-219-220q-5-5-13-5t-12 5l-28 28q-6 6-6 13t6 13l260 260q5 6 12 6t13-6l260-260q6-6 6-13z" horiz-adv-x="642.9" />

<glyph glyph-name="angle-double-down" unicode="&#xe824;" d="M600 368q0-7-6-13l-260-260q-5-6-13-6t-12 6l-260 260q-6 6-6 13t6 13l28 28q5 5 12 5t13-5l219-220 220 220q5 5 13 5t12-5l28-28q6-6 6-13z m0 214q0-7-6-13l-260-260q-5-5-13-5t-12 5l-260 260q-6 6-6 13t6 13l28 28q5 6 12 6t13-6l219-219 220 219q5 6 13 6t12-6l28-28q6-6 6-13z" horiz-adv-x="642.9" />

<glyph glyph-name="skype-1" unicode="&#xe827;" d="M894 250q26-58 26-118 0-108-75-185t-179-77q-62 0-120 32-52-8-80-8-182 0-311 132t-129 320q0 44 10 90-36 60-36 134 0 108 74 184t180 76q74 0 136-40 32 8 76 8 182 0 310-132t128-320q0-46-10-96z m-204-120q30 46 30 100 0 44-16 80-16 30-50 54-36 22-76 36-68 20-96 26-14 2-35 7t-27 7q-24 8-34 14-16 8-26 22-10 10-10 26 0 24 28 42 26 20 76 20t74-18q26-22 38-50 16-26 26-36 16-12 38-12 26 0 46 20 18 18 18 44 0 20-14 52-16 24-42 48-28 22-74 38-48 14-102 14-72 0-128-22-56-20-86-60t-30-92 28-90q34-40 76-56 48-22 116-36 12-2 29-7t30-8 21-5q28-10 46-28 18-14 18-42 0-34-32-56-36-24-90-24-40 0-64 12-26 14-36 28-24 44-26 46-8 24-24 40-20 14-40 14-28 0-46-18t-18-42q0-38 28-82 26-40 72-66 64-34 158-34 78 0 138 24 60 28 88 70z" horiz-adv-x="920" />

<glyph glyph-name="mail-alt-1" unicode="&#xe82e;" d="M1000 454v-443q0-37-26-63t-63-27h-822q-36 0-63 27t-26 63v443q25-27 56-49 202-137 278-192 32-24 51-37t53-27 61-13h2q28 0 61 13t53 27 51 37q95 68 278 192 32 22 56 49z m0 164q0-44-27-84t-68-69q-210-146-262-181-5-4-23-17t-30-22-29-18-32-15-28-5h-2q-12 0-27 5t-32 15-30 18-30 22-23 17q-51 35-147 101t-114 80q-35 23-65 64t-31 77q0 43 23 72t66 29h822q36 0 63-26t26-63z" horiz-adv-x="1000" />

<glyph glyph-name="fax" unicode="&#xe82f;" d="M161 636q37 0 63-26t26-64v-607q0-37-26-63t-63-26h-72q-36 0-63 26t-26 63v607q0 37 26 64t63 26h72z m768-91q32-19 52-52t19-72v-428q0-59-42-101t-101-42h-482q-37 0-63 26t-26 63v857q0 23 15 38t38 16h375q23 0 49-11t43-27l85-85q15-15 26-42t12-49v-91z m-411-552v71q0 8-5 13t-13 5h-71q-8 0-13-5t-5-13v-71q0-8 5-13t13-5h71q8 0 13 5t5 13z m0 143v71q0 8-5 13t-13 5h-71q-8 0-13-5t-5-13v-71q0-8 5-13t13-5h71q8 0 13 5t5 13z m0 143v71q0 8-5 13t-13 5h-71q-8 0-13-5t-5-13v-71q0-8 5-13t13-5h71q8 0 13 5t5 13z m143-286v71q0 8-5 13t-13 5h-72q-7 0-12-5t-5-13v-71q0-8 5-13t12-5h72q8 0 13 5t5 13z m0 143v71q0 8-5 13t-13 5h-72q-7 0-12-5t-5-13v-71q0-8 5-13t12-5h72q8 0 13 5t5 13z m0 143v71q0 8-5 13t-13 5h-72q-7 0-12-5t-5-13v-71q0-8 5-13t12-5h72q8 0 13 5t5 13z m143-286v71q0 8-5 13t-13 5h-72q-7 0-12-5t-6-13v-71q0-8 6-13t12-5h72q8 0 13 5t5 13z m0 143v71q0 8-5 13t-13 5h-72q-7 0-12-5t-6-13v-71q0-8 6-13t12-5h72q8 0 13 5t5 13z m0 143v71q0 8-5 13t-13 5h-72q-7 0-12-5t-6-13v-71q0-8 6-13t12-5h72q8 0 13 5t5 13z m53 214v143h-89q-22 0-38 15t-16 38v90h-357v-286h500z" horiz-adv-x="1000" />

<glyph glyph-name="lock" unicode="&#xe830;" d="M179 421h285v108q0 59-42 101t-101 41-101-41-41-101v-108z m464-53v-322q0-22-16-37t-38-16h-535q-23 0-38 16t-16 37v322q0 22 16 38t38 15h17v108q0 102 74 176t176 74 177-74 73-176v-108h18q23 0 38-15t16-38z" horiz-adv-x="642.9" />

<glyph glyph-name="company" unicode="&#xe831;" d="M357 707h286v72h-286v-72z m643-357v-268q0-37-26-63t-63-26h-822q-36 0-63 26t-26 63v268h375v-89q0-15 11-25t25-11h178q15 0 25 11t11 25v89h375z m-429 0v-71h-142v71h142z m429 268v-214h-1000v214q0 37 26 63t63 26h197v89q0 23 15 38t38 16h322q22 0 38-16t15-38v-89h197q37 0 63-26t26-63z" horiz-adv-x="1000" />

<glyph glyph-name="city" unicode="&#xe832;" d="M750 850q15 0 25-11t11-25v-928q0-15-11-25t-25-11h-714q-15 0-25 11t-11 25v928q0 15 11 25t25 11h714z m-464-161v-35q0-8 5-13t13-5h35q8 0 13 5t5 13v35q0 8-5 13t-13 5h-35q-8 0-13-5t-5-13z m0-143v-35q0-8 5-13t13-5h35q8 0 13 5t5 13v35q0 8-5 13t-13 5h-35q-8 0-13-5t-5-13z m0-142v-36q0-8 5-13t13-5h35q8 0 13 5t5 13v36q0 7-5 12t-13 5h-35q-8 0-13-5t-5-12z m0-143v-36q0-8 5-13t13-5h35q8 0 13 5t5 13v36q0 8-5 13t-13 5h-35q-8 0-13-5t-5-13z m-72-179v36q0 8-5 13t-13 5h-35q-8 0-13-5t-5-13v-36q0-8 5-13t13-5h35q8 0 13 5t5 13z m0 143v36q0 8-5 13t-13 5h-35q-8 0-13-5t-5-13v-36q0-8 5-13t13-5h35q8 0 13 5t5 13z m0 143v36q0 7-5 12t-13 5h-35q-8 0-13-5t-5-12v-36q0-8 5-13t13-5h35q8 0 13 5t5 13z m0 143v35q0 8-5 13t-13 5h-35q-8 0-13-5t-5-13v-35q0-8 5-13t13-5h35q8 0 13 5t5 13z m0 143v35q0 8-5 13t-13 5h-35q-8 0-13-5t-5-13v-35q0-8 5-13t13-5h35q8 0 13 5t5 13z m286-715v107q0 8-5 13t-13 5h-178q-8 0-13-5t-5-13v-107q0-8 5-13t13-5h178q8 0 13 5t5 13z m0 286v36q0 8-5 13t-13 5h-36q-7 0-12-5t-5-13v-36q0-8 5-13t12-5h36q8 0 13 5t5 13z m0 143v36q0 7-5 12t-13 5h-36q-7 0-12-5t-5-12v-36q0-8 5-13t12-5h36q8 0 13 5t5 13z m0 143v35q0 8-5 13t-13 5h-36q-7 0-12-5t-5-13v-35q0-8 5-13t12-5h36q8 0 13 5t5 13z m0 143v35q0 8-5 13t-13 5h-36q-7 0-12-5t-5-13v-35q0-8 5-13t12-5h36q8 0 13 5t5 13z m143-572v36q0 8-5 13t-13 5h-36q-7 0-12-5t-6-13v-36q0-8 6-13t12-5h36q8 0 13 5t5 13z m0 143v36q0 8-5 13t-13 5h-36q-7 0-12-5t-6-13v-36q0-8 6-13t12-5h36q8 0 13 5t5 13z m0 143v36q0 7-5 12t-13 5h-36q-7 0-12-5t-6-12v-36q0-8 6-13t12-5h36q8 0 13 5t5 13z m0 143v35q0 8-5 13t-13 5h-36q-7 0-12-5t-6-13v-35q0-8 6-13t12-5h36q8 0 13 5t5 13z m0 143v35q0 8-5 13t-13 5h-36q-7 0-12-5t-6-13v-35q0-8 6-13t12-5h36q8 0 13 5t5 13z" horiz-adv-x="857.1" />

<glyph glyph-name="post" unicode="&#xe833;" d="M786 296v-267q0-15-11-25t-25-11h-214v214h-143v-214h-214q-15 0-25 11t-11 25v267q0 1 0 2t0 2l321 264 321-264q1-1 1-4z m124 39l-34-41q-5-5-12-6h-2q-7 0-12 3l-386 322-386-322q-7-4-13-3-7 1-12 6l-35 41q-4 6-3 13t6 12l401 334q18 15 42 15t43-15l136-113v108q0 8 5 13t13 5h107q8 0 13-5t5-13v-227l122-102q6-4 6-12t-4-13z" horiz-adv-x="928.6" />

<glyph glyph-name="country" unicode="&#xe834;" d="M179 707q0-40-36-61v-707q0-7-5-12t-13-6h-36q-7 0-12 6t-6 12v707q-35 21-35 61 0 30 21 51t50 21 51-21 21-51z m821-36v-425q0-14-7-22t-22-15q-120-65-206-65-34 0-69 12t-60 27-65 27-79 12q-107 0-259-81-10-5-19-5-14 0-25 10t-10 25v415q0 17 17 30 12 8 44 24 132 67 235 67 60 0 112-16t122-49q21-11 49-11 30 0 65 12t62 26 49 26 30 12q15 0 25-10t11-26z" horiz-adv-x="1000" />

<glyph glyph-name="mobile-1" unicode="&#xe837;" d="M480 840q42 0 71-29t29-71l0-780q0-40-29-70t-71-30l-380 0q-40 0-70 30t-30 70l0 780q0 42 30 71t70 29l380 0z m-190-940q30 0 50 15t20 35q0 22-20 36t-50 14q-28 0-49-15t-21-35 21-35 49-15z m210 150l0 660-420 0 0-660 420 0z" horiz-adv-x="580" />

<glyph glyph-name="forward" unicode="&#xe83d;" d="M1000 493q0-15-11-25l-285-286q-11-11-25-11t-25 11-11 25v143h-125q-55 0-98-3t-86-12-74-24-59-39-45-56-27-77-10-101q0-31 3-69 0-4 2-13t1-15q0-8-5-14t-13-6q-9 0-15 10-4 5-8 12t-7 17-6 13q-71 159-71 252 0 111 30 186 90 225 488 225h125v143q0 14 11 25t25 10 25-10l285-286q11-11 11-25z" horiz-adv-x="1000" />

<glyph glyph-name="cog" unicode="&#xe83f;" d="M571 350q0 59-41 101t-101 42-101-42-42-101 42-101 101-42 101 42 41 101z m286 61v-124q0-7-4-13t-11-7l-104-16q-10-30-21-51 19-27 59-77 6-6 6-13t-5-13q-15-21-55-61t-53-39q-7 0-14 5l-77 60q-25-13-51-21-9-76-16-104-4-16-20-16h-124q-8 0-14 5t-6 12l-16 103q-27 9-50 21l-79-60q-6-5-14-5-8 0-14 6-70 64-92 94-4 5-4 13 0 6 5 12 8 12 28 37t30 40q-15 28-23 55l-102 15q-7 1-11 7t-5 13v124q0 7 5 13t10 7l104 16q8 25 22 51-23 32-60 77-6 7-6 14 0 5 5 12 15 20 55 60t53 40q7 0 15-5l77-60q24 13 50 21 9 76 17 104 3 16 20 16h124q7 0 13-5t7-12l15-103q28-9 51-20l79 59q5 5 13 5 7 0 14-5 72-67 92-95 4-5 4-12 0-7-4-13-9-12-29-37t-30-40q15-28 23-54l102-16q7-1 12-7t4-13z" horiz-adv-x="857.1" />

<glyph glyph-name="cog-alt" unicode="&#xe840;" d="M500 350q0 59-42 101t-101 42-101-42-42-101 42-101 101-42 101 42 42 101z m429-286q0 29-22 51t-50 21-50-21-21-51q0-29 21-50t50-21 51 21 21 50z m0 572q0 29-22 50t-50 21-50-21-21-50q0-30 21-51t50-21 51 21 21 51z m-215-235v-103q0-6-4-11t-8-6l-87-14q-6-19-18-42 19-27 50-64 4-6 4-11 0-7-4-11-12-17-46-50t-43-33q-7 0-12 4l-64 50q-21-11-43-17-6-60-13-87-4-13-17-13h-104q-6 0-11 4t-5 10l-13 85q-19 6-42 18l-66-50q-4-4-11-4-6 0-12 4-80 75-80 90 0 5 4 10 5 8 23 30t26 34q-13 24-20 46l-85 13q-5 1-9 5t-4 11v104q0 5 4 10t9 6l86 14q7 19 18 42-19 27-50 64-4 6-4 11 0 7 4 12 12 16 46 49t44 33q6 0 12-4l64-50q19 10 43 18 6 60 13 86 3 13 16 13h104q6 0 11-4t6-10l13-85q19-6 42-17l65 49q5 4 12 4 6 0 11-4 81-75 81-90 0-4-4-10-7-9-24-30t-25-34q13-27 19-46l85-12q6-2 9-6t4-11z m357-298v-78q0-9-83-17-6-15-16-29 28-63 28-77 0-2-2-4-68-40-69-40-5 0-26 27t-29 37q-11-1-17-1t-17 1q-7-11-29-37t-25-27q-1 0-69 40-3 2-3 4 0 14 29 77-10 14-17 29-83 8-83 17v78q0 9 83 18 7 16 17 29-29 63-29 77 0 2 3 4 2 1 19 11t33 19 17 9q4 0 25-26t29-38q12 1 17 1t17-1q28 40 51 63l4 1q2 0 69-39 2-2 2-4 0-14-28-77 9-13 16-29 83-9 83-18z m0 572v-78q0-9-83-18-6-15-16-29 28-63 28-77 0-2-2-4-68-39-69-39-5 0-26 26t-29 38q-11-1-17-1t-17 1q-7-12-29-38t-25-26q-1 0-69 39-3 2-3 4 0 14 29 77-10 14-17 29-83 9-83 18v78q0 9 83 17 7 16 17 29-29 63-29 77 0 2 3 4 2 1 19 11t33 19 17 9q4 0 25-26t29-37q12 1 17 1t17-1q28 39 51 62l4 1q2 0 69-39 2-2 2-4 0-14-28-77 9-13 16-29 83-8 83-17z" horiz-adv-x="1071.4" />

<glyph glyph-name="wrench" unicode="&#xe841;" d="M214 29q0 14-10 25t-25 10-25-10-11-25 11-25 25-11 25 11 10 25z m360 234l-381-381q-21-20-50-20-29 0-51 20l-59 61q-21 20-21 50 0 29 21 51l380 380q22-55 64-97t97-64z m354 243q0-22-13-59-27-75-92-122t-144-46q-104 0-177 73t-73 177 73 176 177 74q32 0 67-10t60-26q9-6 9-15t-9-16l-163-94v-125l108-60q2 2 44 27t75 45 40 20q8 0 13-5t5-14z" horiz-adv-x="928.6" />

<glyph glyph-name="quote-left" unicode="&#xe842;" d="M911 16l-335 0 0 335q0 139 99 236t236 98l0-111q-93 0-158-66t-65-157l223 0 0-335z m-558 0l-335 0 0 335q0 139 98 236t237 98l0-111q-93 0-158-66t-65-157l223 0 0-335z" horiz-adv-x="928" />

<glyph glyph-name="quote-right" unicode="&#xe843;" d="M18 685l335 0 0-334q0-140-98-238t-237-97l0 111q92 0 158 65t65 159l-223 0 0 334z m558 0l335 0 0-334q0-140-98-238t-237-97l0 111q92 0 158 65t65 159l-223 0 0 334z" horiz-adv-x="928" />

<glyph glyph-name="gift-1" unicode="&#xe844;" d="M518 93v400h-179v-400q0-14 10-21t26-8h107q16 0 26 8t10 21z m-255 471h109l-70 90q-15 17-39 17-22 0-38-15t-15-38 15-38 38-16z m384 54q0 22-15 38t-38 15q-24 0-39-17l-69-90h108q22 0 38 16t15 38z m210-143v-179q0-7-5-12t-13-5h-53v-233q0-22-16-37t-38-16h-607q-22 0-38 16t-16 37v233h-53q-8 0-13 5t-5 12v179q0 8 5 13t13 5h245q-51 0-88 36t-37 89 37 88 88 37q60 0 94-43l72-92 71 92q34 43 94 43 52 0 88-37t37-88-37-89-88-36h245q8 0 13-5t5-13z" horiz-adv-x="857.1" />

<glyph glyph-name="euro" unicode="&#xe846;" d="M545 121l19-89q2-7-1-13t-10-8l-3 0q-2-1-6-2t-9-3-12-3-14-3-16-2-19-3-21-2-21 0q-131 0-228 73t-133 196h-53q-7 0-13 5t-5 13v63q0 7 5 12t13 6h37q-1 31 0 58h-37q-8 0-13 5t-5 13v64q0 8 5 13t13 5h55q37 117 135 188t224 72q57 0 108-13 6-2 11-9 4-6 2-13l-24-89q-2-7-8-11t-13-1l-2 1q-3 0-7 1l-10 2t-12 2-15 2-16 1-16 1q-71 0-126-36t-84-98h261q9 0 14-7 6-7 4-15l-13-63q-3-15-18-15h-273q-1-20 0-58h257q8 0 13-7 5-7 4-15l-14-63q-1-6-6-10t-11-4h-216q27-65 84-104t127-38q10 0 20 1t19 2 16 2 14 3 10 3l7 1 3 2q7 2 14-2 7-3 9-11z" horiz-adv-x="571.4" />

<glyph glyph-name="pound" unicode="&#xe847;" d="M569 216v-205q0-8-5-13t-13-5h-533q-8 0-13 5t-5 13v83q0 8 5 13t13 5h54v214h-53q-8 0-13 5t-5 13v73q0 8 5 13t13 5h53v124q0 96 69 158t175 62q104 0 187-70 5-5 6-12t-4-12l-57-71q-5-6-13-7-7-1-13 4-2 3-14 11t-39 18-51 10q-48 0-77-27t-29-68v-120h170q8 0 13-5t5-13v-73q0-7-5-13t-13-5h-170v-211h231v101q0 7 5 12t13 5h90q8 0 13-5t5-12z" horiz-adv-x="571.4" />

<glyph glyph-name="rupee" unicode="&#xe848;" d="M501 588v-57q0-8-5-13t-13-5h-93q-13-80-72-131t-154-61q93-99 256-299 8-9 2-19-5-10-16-10h-109q-9 0-14 7-171 204-278 318-5 5-5 13v70q0 8 5 13t13 5h62q74 0 119 24t57 70h-238q-8 0-13 5t-5 13v57q0 8 5 13t13 5h230q-31 63-149 63h-81q-7 0-13 5t-5 13v74q0 8 5 13t13 5h464q8 0 13-5t5-13v-57q0-8-5-13t-13-5h-130q26-34 36-80h95q8 0 13-5t5-13z" horiz-adv-x="501.1" />

<glyph glyph-name="yen" unicode="&#xe849;" d="M337-7h-96q-8 0-13 5t-5 13v184h-161q-7 0-13 5t-5 13v57q0 8 5 13t13 5h161v48h-161q-7 0-13 5t-5 12v58q0 8 5 13t13 5h119l-179 323q-4 9 0 18 6 9 16 9h108q11 0 16-10l120-238q11-21 32-69 5 13 17 38t15 34l107 234q4 11 16 11h106q10 0 15-9 5-8 1-18l-175-323h120q7 0 13-5t5-13v-58q0-7-5-12t-13-5h-162v-48h162q7 0 13-5t5-13v-57q0-8-5-13t-13-5h-162v-184q0-7-5-13t-12-5z" horiz-adv-x="573.1" />

<glyph glyph-name="rouble" unicode="&#xe84a;" d="M582 535q0 56-36 90t-96 35h-178v-250h178q60 0 96 34t36 91z m132 0q0-108-70-176t-182-68h-190v-66h282q7 0 12-5t5-13v-71q0-8-5-13t-12-5h-282v-107q0-8-5-13t-13-5h-93q-8 0-13 5t-5 13v107h-125q-8 0-13 5t-5 13v71q0 8 5 13t13 5h125v66h-125q-8 0-13 5t-5 13v83q0 7 5 12t13 6h125v351q0 8 5 13t13 5h301q111 0 182-68t70-176z" horiz-adv-x="714.3" />

<glyph glyph-name="try" unicode="&#xe84b;" d="M643 386q0-107-53-197t-143-143-197-53h-89q-8 0-13 5t-5 13v341l-120-37q-2-1-5-1-6 0-11 4-7 5-7 14v72q0 12 13 17l130 40v51l-120-36q-2-1-5-1-6 0-11 3-7 6-7 15v71q0 13 13 18l130 39v140q0 8 5 13t13 5h89q8 0 13-5t5-13v-101l209 64q9 3 16-2t7-15v-71q0-13-13-18l-219-67v-52l209 65q9 3 16-3t7-15v-71q0-13-13-17l-219-68v-272q105 8 177 85t73 183q0 8 5 13t13 5h89q8 0 13-5t5-13z" horiz-adv-x="642.9" />

<glyph glyph-name="won" unicode="&#xe84c;" d="M287 183l45 167h-89l42-167q1-1 1-2t0-2q0 1 1 2t0 2z m65 238l19 72h-163l18-72h126z m107 0h77l-19 72h-39z m250-238l44 167h-91l46-167q0 0 0-2t1-2q0 1 0 2t0 2z m62 238l19 72h-166l19-72h128z m229-17v-36q0-8-5-13t-13-5h-119l-91-344q-4-13-17-13h-89q-14 0-18 13l-92 344h-117l-93-344q-4-13-17-13h-89q-6 0-11 4t-6 9l-89 344h-116q-8 0-13 5t-5 13v36q0 7 5 12t13 5h98l-19 72h-79q-8 0-13 5t-5 13v35q0 8 5 13t13 5h61l-50 192q-3 9 3 16 5 7 14 7h77q14 0 17-14l50-201h201l54 201q4 14 17 14h70q14 0 18-14l54-201h204l52 201q3 14 17 14h77q9 0 14-7 6-7 3-16l-51-192h62q8 0 13-5t5-13v-35q0-8-5-13t-13-5h-81l-19-72h100q8 0 13-5t5-12z" horiz-adv-x="1000" />

<glyph glyph-name="bitcoin" unicode="&#xe84d;" d="M651 493q10-102-73-144 65-16 98-58t25-119q-4-40-18-70t-36-49-54-33-68-19-81-9v-142h-86v140q-45 0-68 1v-141h-86v142q-10 0-30 1t-31 0h-112l18 102h62q27 0 32 28v225h9q-4 0-9 0v161q-7 37-50 37h-62v92l119-1q35 0 54 1v141h86v-138q45 1 68 1v137h86v-141q44-4 78-13t63-25 46-43 20-64z m-120-304q0 20-8 35t-21 26-32 17-36 11-42 5-38 1-36 0-27-1v-189q5 0 21 0t27 0 29 1 33 2 32 5 31 8 26 11 22 17 14 22 5 29z m-39 265q0 19-7 33t-17 23-27 16-31 9-34 5-32 1-31 0-22-1v-171q3 0 20 0t26 0 27 1 31 3 29 6 27 10 21 15 15 22 5 28z" horiz-adv-x="714.3" />

<glyph glyph-name="ok-1" unicode="&#xe84e;" d="M933 534q0-22-16-38l-404-404-76-76q-16-15-38-15t-38 15l-76 76-202 202q-15 16-15 38t15 38l76 76q16 16 38 16t38-16l164-165 366 367q16 16 38 16t38-16l76-76q16-15 16-38z" horiz-adv-x="1000" />

<glyph glyph-name="users" unicode="&#xe85b;" d="M331 350q-90-3-148-71h-75q-45 0-77 22t-31 66q0 197 69 197 4 0 25-11t54-24 66-12q38 0 75 13-3-21-3-37 0-78 45-143z m598-356q0-66-41-105t-108-39h-488q-68 0-108 39t-41 105q0 30 2 58t8 61 14 61 24 54 35 45 48 30 62 11q6 0 24-12t41-26 59-27 76-12 75 12 60 27 41 26 24 12q34 0 62-11t47-30 35-45 24-54 15-61 8-61 2-58z m-572 713q0-59-42-101t-101-42-101 42-42 101 42 101 101 42 101-42 42-101z m393-214q0-89-63-152t-151-62-152 62-63 152 63 151 152 63 151-63 63-151z m321-126q0-43-31-66t-77-22h-75q-57 68-147 71 45 65 45 143 0 16-3 37 37-13 74-13 33 0 67 12t54 24 24 11q69 0 69-197z m-71 340q0-59-42-101t-101-42-101 42-42 101 42 101 101 42 101-42 42-101z" horiz-adv-x="1071.4" />

<glyph glyph-name="video" unicode="&#xe85c;" d="M214-43v72q0 14-10 25t-25 10h-72q-14 0-25-10t-11-25v-72q0-14 11-25t25-11h72q14 0 25 11t10 25z m0 214v72q0 14-10 25t-25 11h-72q-14 0-25-11t-11-25v-72q0-14 11-25t25-10h72q14 0 25 10t10 25z m0 215v71q0 15-10 25t-25 11h-72q-14 0-25-11t-11-25v-71q0-15 11-25t25-11h72q14 0 25 11t10 25z m572-429v286q0 14-11 25t-25 11h-429q-14 0-25-11t-10-25v-286q0-14 10-25t25-11h429q15 0 25 11t11 25z m-572 643v71q0 15-10 26t-25 10h-72q-14 0-25-10t-11-26v-71q0-14 11-25t25-11h72q14 0 25 11t10 25z m786-643v72q0 14-11 25t-25 10h-71q-15 0-25-10t-11-25v-72q0-14 11-25t25-11h71q15 0 25 11t11 25z m-214 429v285q0 15-11 26t-25 10h-429q-14 0-25-10t-10-26v-285q0-15 10-25t25-11h429q15 0 25 11t11 25z m214-215v72q0 14-11 25t-25 11h-71q-15 0-25-11t-11-25v-72q0-14 11-25t25-10h71q15 0 25 10t11 25z m0 215v71q0 15-11 25t-25 11h-71q-15 0-25-11t-11-25v-71q0-15 11-25t25-11h71q15 0 25 11t11 25z m0 214v71q0 15-11 26t-25 10h-71q-15 0-25-10t-11-26v-71q0-14 11-25t25-11h71q15 0 25 11t11 25z m71 89v-750q0-37-26-63t-63-26h-893q-36 0-63 26t-26 63v750q0 37 26 63t63 27h893q37 0 63-27t26-63z" horiz-adv-x="1071.4" />

<glyph glyph-name="desktop" unicode="&#xe85e;" d="M1000 296v465q0 7-5 12t-13 6h-893q-7 0-12-6t-6-12v-465q0-7 6-12t12-5h893q7 0 13 5t5 12z m71 465v-607q0-37-26-63t-63-27h-303q0-20 9-43t17-40 9-24q0-14-10-25t-25-11h-286q-15 0-25 11t-11 25q0 8 9 25t18 39 9 43h-304q-36 0-63 27t-26 63v607q0 37 26 63t63 26h893q37 0 63-26t26-63z" horiz-adv-x="1071.4" />

<glyph glyph-name="doc-inv" unicode="&#xe85f;" d="M571 564v264q13-8 21-16l227-228q8-7 16-20h-264z m-71-18q0-22 16-37t38-16h303v-589q0-23-15-38t-38-16h-750q-23 0-38 16t-16 38v892q0 23 16 38t38 16h446v-304z" horiz-adv-x="857.1" />

<glyph glyph-name="circle" unicode="&#xe860;" d="M857 350q0-117-57-215t-156-156-215-58-216 58-155 156-58 215 58 215 155 156 216 58 215-58 156-156 57-215z" horiz-adv-x="857.1" />

<glyph glyph-name="circle-thin" unicode="&#xe862;" d="M429 707q-73 0-139-28t-114-76-76-114-29-139 29-139 76-113 114-77 139-28 138 28 114 77 76 113 29 139-29 139-76 114-114 76-138 28z m428-357q0-117-57-215t-156-156-215-58-216 58-155 156-58 215 58 215 155 156 216 58 215-58 156-156 57-215z" horiz-adv-x="857.1" />

<glyph glyph-name="paper-plane-1" unicode="&#xe864;" d="M984 844q19-13 15-36l-142-857q-3-16-18-25-8-5-18-5-6 0-13 3l-253 104-135-165q-10-13-27-13-7 0-12 2-11 4-17 13t-7 21v195l482 590-596-516-221 91q-20 8-22 30-1 23 18 33l928 536q9 5 18 5 11 0 20-6z" horiz-adv-x="1000" />

<glyph glyph-name="attention-alt" unicode="&#xe865;" d="M286 154v-125q0-15-11-25t-25-11h-143q-14 0-25 11t-11 25v125q0 14 11 25t25 10h143q15 0 25-10t11-25z m17 589l-16-429q-1-14-12-25t-25-10h-143q-14 0-25 10t-12 25l-15 429q-1 14 10 25t24 11h179q14 0 25-11t10-25z" horiz-adv-x="357.1" />

<glyph glyph-name="compare-link" unicode="&#xe867;" d="M311 504l489 0c36 0 65-30 65-65l0-404c0-35-29-65-65-65l-489 0c-35 0-65 30-65 65l0 404c0 35 30 65 65 65z m454-94l-419 0 0-346 419 0 0 346z m-146 181l-101 0 0 44-417 0 0-336 58 0 0-95-93 0c-36 0-66 30-66 65l0 395c0 36 30 66 66 66l488 0c36 0 65-30 65-66l0-73z" horiz-adv-x="865" />

<glyph glyph-name="cat-default" unicode="&#xe868;" d="M199 413c0 166 135 300 301 300 166 0 301-134 301-300 0-166-135-301-301-301-166 0-301 135-301 301z" horiz-adv-x="1000" />

<glyph glyph-name="tag-line" unicode="&#xe870;" d="M929 355l-475-475c0-1-1-2-2-3-4-4-9-6-15-6-5 0-10 2-14 6-1 1-2 2-2 3l-350 349c-1 1-2 1-3 2-4 4-6 10-5 15-1 5 1 11 5 15 1 1 2 1 3 2l475 475c4 5 10 8 16 8h1c0 0 0 0 0 0h84c3 31 16 59 35 77l0-1c4 5 10 7 16 7 12 0 22-10 22-24 0-7-4-14-9-18-10-10-17-24-19-41h99c0 0 0 0 0 0h1c6 0 12-3 16-8l121-122c5-4 8-9 8-16v0c0 0 0 0 0-1v-228c0 0 0 0 0 0v0c0-7-3-12-8-16z m-215 148c-4-4-10-7-16-7-12 0-22 11-22 24 0 8 3 14 9 18 5 5 9 12 13 19-18-5-31-21-31-40 0-23 18-42 41-42 23 0 42 19 42 42 0 10-4 19-9 26-13-33-27-40-27-40z m182 89l-112 112h-88c4-9 9-17 15-23l0 0c1 0 2-1 3-2l0 1c22-21 36-52 36-89 0-1 0-2 0-2 25-15 42-41 42-72 0-46-38-84-84-84s-83 38-83 84c0 44 35 81 80 83-2 18-10 34-20 44-1 0-2 1-3 2l0-1c-16 15-27 35-33 59h-79l-458-458 325-326 459 459v213z m-598-310c8 8 20 8 28 0l147-147c8-8 8-21 0-29-8-8-21-8-29 0l-146 147c-8 8-8 21 0 29z m83 83c8 8 21 8 29 0l147-147c7-8 7-21 0-29-8-8-21-8-29 0l-147 147c-8 8-8 21 0 29z" horiz-adv-x="1000" />

<glyph glyph-name="bag" unicode="&#xe871;" d="M386 850c-119 0-215-95-215-213v-15h-148c-1 0-1 0-2 0-12-1-21-11-21-22v-616c0-74 60-134 134-134h504c73 0 134 60 134 134v616c0 12-11 22-23 22h-148v15c1 118-95 213-215 213z m0-46c96 0 171-74 171-167v-15h-341v15c0 93 75 167 170 167z m-340-227h681v-593c0-50-39-89-88-89h-504c-50 0-88 40-88 89l-1 593 0 0z m147-57c-25 0-45-20-45-45s20-46 45-46 46 21 46 46-21 45-46 45z m387 0c-25 0-46-20-46-45s21-46 46-46 45 21 45 46-20 45-45 45z" horiz-adv-x="772" />

<glyph glyph-name="search-1" unicode="&#xe872;" d="M987-65l-355 356c44 58 70 131 70 209 0 193-157 350-350 350s-350-157-350-350 157-350 350-350c79 0 151 26 209 70l356-355c19-20 51-20 70 0 20 19 20 51 0 70z m-635 315c-138 0-250 112-250 250s112 250 250 250 250-112 250-250-112-250-250-250z" horiz-adv-x="1002" />

<glyph glyph-name="online-support" unicode="&#xe877;" d="M520 873c-254 0-352-164-360-320l0-135c-13-15-19-35-19-62 0-45 29-84 72-94 53-135 139-310 287-310 80 0 143 52 190 121l-51 0c-45-55-90-80-141-80-96 0-178 95-254 297l-4 11-11 2c-28 0-49 24-49 53 0 12 2 21 6 29l66-31c6-2 14-2 20 2 5 4 7 10 7 17l0 143c14 0 51 2 112 16 64 15 136 43 187 91 53-70 123-97 143-103l0-147c0-7 2-13 8-17 5-4 13-4 19-2l31 16 0-67c-2 0-6 0-9 0l-12-2-4-11c-20-53-41-98-61-135 24 4 47 13 63 31 12 25 21 53 33 76 4 2 8 4 12 4l0-14c0-66-53-119-121-119l-84 0c-8 22-30 39-57 39l-39 0c-33 0-60-27-60-60 0-31 27-59 60-59l39 0c27 0 49 16 57 39l84 0c90 0 160 73 160 160l0 20c33 0 60 27 60 60l0 81c0 33-27 60-60 60l0 80c-8 176-106 276-272 279l-41 41z m-8-41l41-39 8 0c199 0 236-150 240-240l0-80c-2 0-2 0-2 0-12-2-20-10-20-21l0-37-19-10 0 127c0 9-6 17-14 19 0 0-99 31-148 112-4 7-12 9-20 9-6 0-10-4-13-7-40-47-116-79-182-94-68-16-125-18-125-18-10-2-18-10-18-21l0-127-43 19 0 129c14 201 168 278 315 279z m308-400l20 0c12 0 19-8 19-19l0-81c0-11-7-19-19-19l-16 0c-2 0-4 0-4 0l0 88c0 2 0 4 0 6z m-320-299l39 0c12 0 22-10 22-21 0-10-10-20-22-20l-39 0c-12 0-19 10-19 20 0 11 7 21 19 21z" horiz-adv-x="1000" />

<glyph glyph-name="shopping-bag" unicode="&#xe878;" d="M500 819c-86 0-156-71-156-156l0-32-154 0-2-29-32-562-2-34 692 0-2 34-31 562-2 29-155 0 0 32c0 85-70 156-156 156z m0-63c51 0 94-43 94-93l0-32-188 0 0 32c0 50 43 93 94 93z m-252-187l96 0 0-94 62 0 0 94 188 0 0-94 62 0 0 94 96 0 27-500-558 0z" horiz-adv-x="1000" />

<glyph glyph-name="us-dollar" unicode="&#xe879;" d="M500 893c-266 0-480-215-480-480 0-266 214-481 480-481 266 0 481 215 481 481 0 265-215 480-481 480z m0-41c244 0 440-195 440-439 0-245-196-440-440-440-244 0-439 195-439 440 0 244 195 439 439 439z m-18-139l0-56c-113-6-132-90-132-127 0-190 273-90 273-231 0-17-4-97-121-97-4 0-125-2-121 125l-43 0c4-135 90-153 144-159l0-56 40 0 0 56c134 10 142 112 142 131 0 180-273 88-273 225 0 47 17 99 111 99 96 0 107-74 109-109l43 0c4 57-37 139-132 143l0 56z" horiz-adv-x="1000" />

<glyph glyph-name="shipped" unicode="&#xe87a;" d="M47 770c-14-6-27-20-33-35l-4-6 0-268c0-255 0-269 4-275 6-20 17-31 37-39 6-2 12-2 53-2 33 0 44 0 44-2 2 0 2-4 2-6 2-14 16-39 26-49 8-9 19-21 23-23 2 0 4-2 6-2 4-2 6-4 6-4 2 0 4-2 6-2 4-2 8-4 10-4 17-8 58-8 78 0 2 0 6 2 8 4 2 0 5 2 5 2 2 0 4 2 6 4 2 0 6 2 6 2 6 2 18 14 26 23 9 10 21 35 23 49 2 2 2 6 4 6 2 2 293 2 295 0 2 0 2-4 2-6 4-14 15-39 25-49 8-9 20-21 26-23 0 0 1-2 5-2 2-2 4-4 6-4 0 0 4-2 6-2 10-6 14-6 22-8 11-4 39-4 50 0 10 2 12 2 22 8 2 0 6 2 6 2 2 0 4 2 6 4 3 0 5 2 7 2 4 2 16 14 24 23 10 10 23 35 25 49 0 8 2 8 18 8 15 0 27 2 31 6 0 2 2 2 4 2 2 0 19 19 19 21 0 0 2 2 2 2 2 2 4 6 4 10 2 6 2 14 2 113 0 74 0 110 0 112-2 4-2 7-4 9 0 8-4 16-9 28-8 13-8 13-16 27-10 14-86 117-94 125-8 8-21 18-23 20-2 0-4 2-6 3-2 2-6 2-6 4-2 0-4 0-4 2-2 0-8 2-12 4-7 2-11 2-99 2-51 0-94-2-96-2-2 0-2 0-2 49-2 37-2 49-4 51 0 4-2 8-4 10-2 7-15 19-21 23-18 8 8 6-277 6-256 0-260 0-266-2z m519-39c4-2 12-10 12-14 0-2 2-123 0-267l0-266-97 0c-67 0-98 0-98 2-2 0-2 4-4 6 0 14-14 37-23 49-8 9-20 19-26 21 0 2-4 2-6 4-2 2-4 4-6 4 0 0-3 2-5 2-2 2-6 4-8 4-20 8-59 8-78 0-2 0-6-2-8-4-4 0-6-2-8-2 0 0-2-2-6-4-2-2-4-2-6-4-4-2-15-12-23-21-10-12-24-35-26-49 0-2 0-6-2-6 0-2-9-2-41-2-39 0-41 0-46 4-4 2-6 4-8 8l-4 6 2 259c0 246 0 258 2 262 0 4 4 6 6 8 4 2 15 2 254 2 214 0 250 0 253-2z m151-231c0-97 0-101 6-107 0-2 2-2 2-4 0-2 19-21 21-21 0 0 2 0 4 0 6-6 8-6 106-8l95 0 0-78 0-80-4-6c-2-2-6-6-7-8-4-4-6-4-16-4-12 0-14 0-14 8-2 14-15 37-25 49-8 9-20 19-24 21-2 2-4 2-7 4-2 2-4 4-6 4 0 0-4 2-6 2-2 2-6 4-8 4-19 8-59 8-78 0-2 0-6-2-8-4-2 0-6-2-6-2-2 0-4-2-6-4-4-2-5-2-5-4-6-2-18-12-26-21-10-12-23-35-25-49 0-2 0-6-2-6 0-2-12-2-30-2l-29 0 0 197 0 198 4 3c2 4 6 8 8 10l6 4 39 0 41 0z m92 92c9-6 21-13 31-23 6-8 35-47 45-61 2-4 6-6 6-6 0 0 2-4 4-5 2-4 3-8 5-10 2-2 6-6 8-8 2-4 6-8 6-10 4-4 12-13 16-19 2-4 4-8 10-16 3-8 7-19 7-29l0-6-86 0-88 2-5 2c-2 2-6 6-8 10l-4 3 0 90c0 49 0 88 0 88 2 2 12 2 23 2 22 0 22-2 30-4z m-526-351c30-8 51-30 59-59 2-8 2-27 0-35-8-29-29-51-59-59-8-2-27-2-35 0-29 8-51 30-58 59-2 8-2 27 0 35 3 18 15 35 27 43 8 6 23 14 27 14 2 0 4 2 8 2 4 2 21 2 31 0z m530 0c17-4 35-16 43-28 11-15 17-31 17-48 0-32-17-57-45-71-12-6-19-8-33-8-31 0-57 18-70 45-6 12-8 20-8 34 0 31 17 56 45 70 6 2 10 4 11 4 2 0 4 2 8 2 6 2 22 2 32 0z m-358 396c-2-2-8-6-10-10-4-2-9-9-17-17-10-12-14-16-26-29-4-4-9-12-15-18-6-4-12-12-12-14-4-4-8-8-27-27-8-10-16-18-18-20-10-9-14-15-23-27-14-14-18-18-20-18 0 0-4 2-6 4-4 4-8 8-9 10-2 2-4 4-6 4-2 2-8 8-26 23-2 2-4 4-6 4 0 2-5 6-11 12-6 4-12 10-14 10-8 8-23 21-23 21-2 0-4-2-14-15-10-10-12-14-12-14 0-2 2-4 24-21 7-8 17-18 21-22 2 0 8-6 14-10 6-6 12-11 12-11 0 0 7-6 17-14 8-8 16-16 18-18 7-7 23-21 25-21 0 0 2 4 4 6 4 2 6 6 8 8 2 2 10 9 17 17 16 18 22 26 26 29 2 2 10 10 17 18 16 18 22 25 28 29 2 2 7 10 15 20 14 14 24 25 32 31 2 2 7 10 13 18 6 6 16 15 18 19 15 14 19 22 19 24 0 0 0 2 0 2 0 0-7 5-13 11-6 6-14 12-14 12-2 0-4-2-6-6z" horiz-adv-x="1000" />

<glyph glyph-name="list" unicode="&#xe87b;" d="M55 858l890 0 0-207-890 0z m0-348l890 0 0-205-890 0z m0-336l890 0 0-207-890 0z" horiz-adv-x="1000" />

<glyph glyph-name="bag-2" unicode="&#xe87f;" d="M826 627l57-568c0-23-8-43-24-61-17-15-37-25-60-25l-598 0c-23 0-43 10-60 25-16 18-24 38-24 61l57 568c0 24 8 43 23 61 18 16 37 25 61 25l86 0 0 14c0 43 15 80 45 109 31 32 68 47 111 47 43 0 80-15 111-47 30-29 45-66 45-109l0-14 86 0c24 0 43-9 61-25 15-18 23-37 23-61z m-439 100l0-14 226 0 0 14c0 31-11 59-33 80-21 22-49 33-80 33-31 0-59-11-80-33-23-21-33-49-33-80z m412-695c8 0 14 2 19 8 6 5 8 11 8 19l-56 568c0 8-2 14-8 20-6 6-12 10-20 10l-86 0 0-45c8-4 16-10 20-18 6-8 10-17 10-27 0-14-6-26-16-35-10-10-22-14-35-14-14 0-26 4-35 14-10 9-14 21-14 35 0 10 2 19 8 27 4 8 12 14 19 18l0 45-226 0 0-45c8-4 15-10 19-18 6-8 8-17 8-27 0-14-4-26-14-35-9-10-21-14-35-14-13 0-25 4-35 14-10 9-15 21-15 35 0 10 3 19 9 27 4 8 12 14 20 18l0 45-86 0c-8 0-14-4-20-10-6-6-7-12-7-20l-57-568c0-8 2-14 8-19 6-6 11-8 19-8z" horiz-adv-x="1000" />

<glyph glyph-name="grid" unicode="&#xe880;" d="M55 858l207 0 0-207-207 0z m0-342l207 0 0-207-207 0z m0-342l207 0 0-207-207 0z m342 684l207 0 0-207-207 0z m0-342l207 0 0-207-207 0z m0-342l207 0 0-207-207 0z m341 684l207 0 0-207-207 0z m0-342l207 0 0-207-207 0z m0-342l207 0 0-207-207 0z" horiz-adv-x="1000" />

<glyph glyph-name="bag-3" unicode="&#xe881;" d="M844 695h-187v60c0 52-42 94-94 94h-124c-52 0-94-42-94-94v-60h-189c-34 0-62-28-62-62v-719c0-35 28-63 62-63h688c34 0 62 28 62 63v719c0 34-28 62-62 62h0z m-437 60c0 17 14 31 32 31h124c18 0 32-14 32-31v-60h-188v60z m437-841h-688v719h189v-65s-1-31 31-31c35 0 31 31 31 31v65h188v-65s-2-31 31-31c31 0 31 31 31 31v65h187v-719z" horiz-adv-x="1000" />

<glyph glyph-name="direction" unicode="&#xe882;" d="M944 559l-175 187c-6 7-14 10-22 10h-261l-1 65c0 16-14 29-32 29s-29-13-29-29l-1-65h-344c-18 0-32-14-32-31v-375c0-17 14-31 32-31h344v-440c0-16 14-29 31-29s31 13 31 29v440h262c8 0 16 3 22 10l175 187c11 12 11 31 0 43z m-211-178h-623v313h623l146-156z" horiz-adv-x="1000" />

<glyph glyph-name="home" unicode="&#xe883;" d="M993 349l-469 491c-6 6-14 10-23 10-8 0-16-4-22-10l-472-491c-12-13-11-32 1-44 13-12 32-12 44 0l42 44v-467c0-18 14-32 32-32h218c17 0 31 14 31 31l1 313h249v-312c0-18 14-32 31-32h219c17 0 31 14 31 32v467l42-44c6-6 14-9 22-9 8 0 16 3 22 9 12 11 13 31 1 44z m-150 57v-493h-155v312c0 17-14 31-32 31h-311c-17 0-31-14-31-31l-1-312h-156v493c0 2-1 5-1 7l345 360 343-359c0-3-1-5-1-8z" horiz-adv-x="1000" />

<glyph glyph-name="magnifier" unicode="&#xe884;" d="M991-96l-304 305c57 68 91 155 91 250 0 216-175 391-391 391s-390-175-390-391 175-390 390-390c98 0 188 36 256 96l304-306c12-12 32-12 44 0 12 13 12 32 0 45z m-604 227c-181 0-328 147-328 328s147 329 328 329c182 0 329-147 329-329s-147-328-329-328z" horiz-adv-x="1000" />

<glyph glyph-name="magnifier-add" unicode="&#xe885;" d="M991-96l-277 278c60 71 95 162 95 261 0 225-181 407-406 407s-406-182-406-407 182-407 406-407c103 0 196 39 268 101l276-278c12-12 32-12 44 0 12 13 12 32 0 45z m-588 196c-189 0-344 155-344 344s155 344 344 344c189 0 344-155 344-344s-155-344-344-344z m156 375h-125v125c0 17-14 31-31 31s-31-14-31-31v-125h-125c-18 0-32-14-32-31s14-31 32-31h125v-125c0-18 14-32 31-32s31 14 31 32v125h125c17 0 31 14 31 31s-14 31-31 31z" horiz-adv-x="1000" />

<glyph glyph-name="magnifier-remove" unicode="&#xe886;" d="M991-96l-277 278c60 71 95 162 95 261 0 225-181 407-406 407s-406-182-406-407 182-407 406-407c103 0 196 39 268 101l276-278c12-12 32-12 44 0 12 13 12 32 0 45z m-588 196c-189 0-344 155-344 344s155 344 344 344c189 0 344-155 344-344s-155-344-344-344z m156 375h-312c-18 0-32-14-32-31s14-31 32-31h312c17 0 31 14 31 31s-14 31-31 31z" horiz-adv-x="1000" />

<glyph glyph-name="phone-1" unicode="&#xe887;" d="M256 814c37-50 80-116 131-195 12-21 10-47-6-78-6-12-22-41-47-87 27-39 70-87 126-143s105-99 142-127c46 26 75 43 87 49 17 9 33 13 48 13 11 0 21-2 30-7 58-36 123-79 197-131 13-10 21-24 23-41 2-18-3-37-16-57-6-9-16-22-30-39-14-17-35-39-63-64s-50-39-68-39h-2c-133 5-298 105-492 300-195 195-295 359-300 493 0 17 13 40 39 69 25 28 47 49 63 61 16 13 30 23 41 31 14 10 30 15 48 15 21 0 38-8 49-23z m-62-40c-27-19-52-40-75-63-23-24-37-41-41-52 5-118 99-267 281-449 182-181 332-275 449-282 10 4 27 18 50 42s45 49 64 76c3 5 5 9 3 13-75 53-138 95-189 127-5 0-11-2-19-6-11-6-39-22-85-47l-32-19-32 21c-42 29-92 74-152 134-59 59-103 110-132 152l-23 30 19 34c25 45 41 74 47 85 4 8 6 14 6 19-45 72-86 135-124 189h-2c-5 0-10-1-13-4z" horiz-adv-x="1000" />

<glyph glyph-name="clock-1" unicode="&#xe888;" d="M500 850c-276 0-500-224-500-500 0-276 224-500 500-500 276 0 500 224 500 500 0 276-224 500-500 500z m0-939c-241 0-437 198-437 439 0 241 196 438 437 438s438-197 438-438-197-439-438-439z m31 452v300c0 17-14 31-31 31s-31-14-31-31v-313c0-9 4-17 9-22 1-1 1-2 2-2l155-155c12-12 32-12 44 0 12 12 12 32 0 44z" horiz-adv-x="1000" />

<glyph glyph-name="heart-1" unicode="&#xe889;" d="M0 476q0 122 88 210 84 84 204 86t208-78q88 80 208 78t204-86q88-88 88-210t-88-210q-4-4-346-342-27-27-66-27t-66 27q-2 0-346 342-88 88-88 210z m63 0q0-97 70-165l346-342q21-23 43 0l345 342q70 68 70 165t-70 165q-66 66-160 68t-164-60l-43-39-43 39q-70 62-164 60t-160-68q-70-68-70-165z m93 7q0 55 39 94t94 39q16 0 16-16t-16-16q-41 0-71-29t-30-72q0-16-16-16t-16 16z" horiz-adv-x="1000" />

<glyph glyph-name="earphones-alt" unicode="&#xe88b;" d="M1000 291c0 20-3 98-6 120-28 255-235 440-491 440-267 0-483-206-498-479 0-6-2-48-3-73l0-14c-1-6-2-12-2-18v-210c0-45 37-83 83-83h84c46 0 84 38 84 83v210c0 46-38 83-84 83h-84c-6 0-11-1-17-2 1 11 1 19 1 21 13 239 203 419 436 419 224 0 404-161 429-384 1-9 3-33 4-56-6 1-13 2-19 2h-83c-46 0-83-37-83-83v-209c0-31 18-59 44-73l-201-78v5c0 17-14 31-31 31h-94c-17 0-31-14-31-31v-31c0-18 14-32 31-32h94c0 0 0 0 1 0l56 1 321 126c5 2 8 4 11 7 28 14 48 42 48 75v209c0 5-1 10-2 15 1 3 2 6 2 9z m-917-3h84c12 0 21-10 21-21v-210c0-11-9-20-21-20h-84c-11 0-20 9-20 20v210c0 11 9 21 20 21z m730-21c0 11 9 21 21 21h83c11 0 20-10 20-21v-209c0-11-9-20-20-20h-83c-12 0-21 9-21 20v209z" horiz-adv-x="1000" />

<glyph glyph-name="credit-card" unicode="&#xe88c;" d="M906 678h-812c-52 0-94-42-94-94v-468c0-52 42-94 94-94h812c52 0 94 42 94 94v468c0 52-42 94-94 94z m-812-62h812c18 0 32-14 32-32v-62h-876v62c0 18 14 32 32 32z m812-532h-812c-18 0-32 14-32 32v281h876v-281c0-18-14-32-32-32z" horiz-adv-x="1000" />

<glyph glyph-name="action-undo" unicode="&#xe88d;" d="M967-70c0 0-1 0-1 0-16 0-26 13-27 28-1 12-33 292-471 292v-179c0-12-7-23-18-28-11-6-24-4-33 4l-406 335c-7 6-11 15-11 25 0 9 4 18 12 24l405 332c9 8 22 9 33 4 11-5 18-16 18-28v-175c181-6 323-65 414-171 149-174 115-426 114-437-2-15-14-26-29-26z m-530 383l0 0c312 0 432-106 500-199-10 75-39 165-103 238-84 98-220 150-397 150-18 0-32 14-32 31v140l-324-267 324-269v145c0 8 4 16 9 22 6 6 14 9 23 9z" horiz-adv-x="1000" />

<glyph glyph-name="envolope" unicode="&#xe88e;" d="M1000 623c0 6 0 13-3 18-8 35-33 53-75 53h-813c-37 0-77-14-97-41-1-1-3-2-4-4-7-7-9-17-7-26-1-2-1-5-1-7v-500c0-52 58-110 109-110h813c52 0 78 58 78 110v500c0 2 0 5 0 7z m-891 8l813 0h0l-422-336-421 335c10 2 22 1 30 1z m813-562h-813c-17 0-46 29-46 47v447l417-333c5-5 13-8 20-8 7 0 15 3 21 8l417 333v-447c0-18 1-47-16-47z" horiz-adv-x="1000" />

<glyph glyph-name="chart" unicode="&#xe88f;" d="M266 538h-219c-17 0-31-14-31-32v-625c0-17 14-31 31-31h219c17 0 31 14 31 31v625c0 18-14 32-31 32z m-32-626h-156v563h156v-563z m375 440h-219c-17 0-31-14-31-31v-440c0-17 14-31 31-31h219c17 0 31 14 31 31v440c0 17-14 31-31 31z m-31-440h-156v377h156v-377z m375 938h-218c-18 0-32-14-32-31v-938c0-17 14-31 32-31h218c17 0 31 14 31 31v938c0 17-14 31-31 31z m-31-938h-156v876h156v-876z" horiz-adv-x="1000" />

<glyph glyph-name="user-1" unicode="&#xe8b9;" d="M613 256c-57 0-83-31-175-31-92 0-119 31-175 31-145 0-263-117-263-262v-50c0-52 42-94 94-94h687c52 0 94 42 94 94v50c0 145-118 262-262 262z m168-312h-687v50c0 93 76 169 169 169 28 0 74-32 175-32 101 0 146 32 175 32 93 0 168-76 168-169v-50z m-343 344c155 0 281 126 281 281s-126 281-281 281-282-126-282-281 126-281 282-281z m0 468c103 0 187-84 187-187s-84-188-187-188-188 84-188 188 84 187 188 187z" horiz-adv-x="875" />

<glyph glyph-name="shopping-cart" unicode="&#xe8ba;" d="M696 599c-7 56-32 109-73 149-47 47-109 72-175 72h-4c-66 0-128-25-175-72-41-40-66-93-72-149h-167v-554c0-91 74-165 165-165h502c91 0 166 74 166 165v554h-167z m-252 169h4c99 0 181-74 195-169h-394c14 95 96 169 195 169z m366-723c0-62-50-113-113-113h-502c-62 0-113 51-113 113v502h117v-102c0-12 10-22 22-22h2c12 0 22 10 22 22v102h402v-102c0-12 10-22 22-22h2c12 0 22 10 22 22v102h117v-502z" horiz-adv-x="892" />

<glyph glyph-name="phone-2" unicode="&#xe8bb;" d="M209 171c96-116 213-208 347-272 50-24 118-53 194-58 5 0 9 0 14 0 51 0 91 18 125 53 0 1 1 1 1 1 12 15 25 28 39 42 10 8 20 18 29 28 43 46 43 103 0 147l-123 123c-21 22-46 32-72 32-26 0-51-10-73-32l-73-73c-7 4-14 7-20 10-8 4-15 8-22 13-67 42-127 97-185 168-29 36-48 68-62 99 19 17 37 36 54 54 7 6 13 12 19 18 22 22 34 48 34 74s-12 51-34 73l-60 61c-8 7-14 14-21 21-14 14-28 28-42 41-21 21-46 32-71 32-27 0-52-11-73-32l-77-77c-28-27-43-61-46-100-4-48 5-101 28-163 36-97 90-187 170-283z m-149 442c3 28 13 50 32 70l76 76c12 10 26 16 39 16 11 0 24-6 36-17 14-13 27-26 40-40 7-8 14-14 21-21l61-61c13-13 20-26 20-39s-7-25-20-38c-6-6-13-13-19-19-18-20-36-37-56-55-1 0-1 0-1-1-17-17-14-32-10-45 1 0 1-1 1-1 15-39 37-74 71-117 61-75 125-134 196-180 9-4 19-9 28-13 8-5 16-9 22-13 0 0 1-1 2-1 7-4 13-5 20-5 17 0 27 10 31 14l75 76c12 11 25 18 38 18 16 0 28-10 36-18l123-123c25-24 25-51-1-77-8-9-17-18-26-27-15-14-30-29-44-44-22-26-51-38-87-38-3 0-7 0-10 1-67 4-129 30-176 52-127 62-238 149-331 259-76 92-127 178-161 269-21 56-29 101-26 142z" horiz-adv-x="1000" />

<glyph glyph-name="check-circle" unicode="&#xe8c1;" d="M984 350c0-267-216-484-484-484s-484 217-484 484 217 484 484 484 484-216 484-484z m-540-256l359 359c13 12 13 32 0 44l-44 44c-12 13-32 13-44 0l-293-293-137 137c-12 12-32 12-44 0l-44-44c-13-12-13-32 0-44l203-203c12-13 32-13 44 0z" horiz-adv-x="1000" />

<glyph glyph-name="arrow-right-solid" unicode="&#xe8c4;" d="M372 719l43 44c19 18 49 18 67 0l379-380c19-18 19-48 0-66l-379-380c-19-18-48-18-67 0l-43 44c-18 18-18 49 1 67l235 224h-561c-26 0-47 21-47 47v62c0 26 21 47 47 47h561l-235 224c-19 19-20 49-1 67z" horiz-adv-x="875" />

<glyph glyph-name="check-solid" unicode="&#xe8c5;" d="M340-8l-325 325c-20 19-20 51 0 71l70 70c20 20 52 20 71 0l219-219 469 469c20 20 51 20 71 0l70-70c20-20 20-52 0-71l-575-575c-19-20-51-20-70 0z" horiz-adv-x="1000" />

<glyph glyph-name="category-home" unicode="&#xe900;" d="M220-117c-21 6-43 23-53 42-11 20-10 10-10 246v215l-28-28c-18-17-30-28-33-28-7-2-22 0-27 3-6 5-12 17-12 25 0 4 1 9 3 13 4 9 419 429 428 433 3 2 9 3 12 3s9-1 13-3c9-4 423-424 427-433 2-4 3-9 3-13 0-8-5-20-12-25-5-3-19-5-27-3-3 0-15 11-33 28l-28 28v-215c0-186 0-216-2-225-7-30-32-55-62-63-14-4-545-4-559 0z m137 232c0 147 0 178 2 183 3 6 10 13 17 16 6 2 242 2 249 0 6-3 13-10 16-16 2-5 2-36 2-183v-176h55c33 0 59 0 63 2 10 2 20 10 22 19 1 4 2 92 2 246l0 240-142 144c-77 78-142 143-143 143s-66-65-143-143l-142-144 0-240c0-154 1-242 2-246 2-8 12-17 20-19 4-1 33-2 64-2l56 0v176z m228-18v158h-170v-316h170v158z" horiz-adv-x="1000" />

<glyph glyph-name="category-motors" unicode="&#xe901;" d="M261 100c-29 7-57 32-68 59l-3 10-128 1-6 4c-3 2-7 7-9 10-4 6-4 8-4 117v111l4 5c2 3 7 8 10 10 5 3 7 3 37 3h32l39 73c22 40 41 75 43 78 9 10 0 10 202 9l184 0 7-5c5-3 20-24 60-79l53-75 59-1c64 0 74-1 95-9 34-14 66-46 79-80 9-23 10-30 10-93 0-55 0-58-4-64-2-3-6-8-9-10l-6-4-128-1-3-10c-11-28-39-52-69-59-22-6-49-3-69 7-20 10-42 34-48 54l-3 8h-236l-3-8c-9-28-39-54-69-61-13-3-36-3-49 0z m42 60c15 7 24 22 24 39 0 24-18 42-41 42-29 0-49-29-39-56 2-9 14-21 22-25 9-4 25-4 34 0z m428 0c8 4 20 16 23 25 9 27-11 56-40 56-23 0-41-18-41-42 0-17 9-32 25-39 8-4 24-4 33 0z m-538 77c6 19 28 44 47 53 17 9 30 11 51 10s34-5 49-14c17-12 33-31 39-49l3-8h236l3 8c6 18 22 37 40 49 15 9 27 13 48 14s34-1 51-10c19-9 41-34 48-53l2-8h88v34c0 48-3 60-23 81-10 11-20 18-35 23l-11 4-727 1v-143h88l3 8z m192 243v50h-139l-25-49c-13-27-24-49-24-50s42-1 94-1h94v50z m220 0l-33 50h-129v-100h195l-33 50z" horiz-adv-x="1000" />

<glyph glyph-name="category-music" unicode="&#xe902;" d="M331-117c-7 3-13 11-16 18-4 12 1 26 12 34 4 3 7 3 74 3l69 1v116l-14 2c-104 15-192 80-239 177-17 34-26 68-30 106-1 10-2 42-2 71 0 49 0 54 3 60 6 12 15 18 27 18 8 0 19-6 24-12 4-6 4-7 5-69 1-67 2-78 10-108 16-54 52-105 99-139 17-12 52-30 71-36 45-15 107-15 152 0 20 6 54 24 72 36 46 34 82 85 98 139 8 30 9 41 11 108 1 62 1 63 4 69 5 6 16 12 25 12 12 0 21-6 26-18 3-6 3-11 3-60 0-29-1-61-2-71-4-38-13-72-30-106-46-97-134-162-239-177l-14-2v-116l70-1c66 0 69 0 74-3 14-12 17-31 5-45-9-10 0-10-179-10-133 1-165 1-169 3z m145 288c-87 10-158 78-173 165-4 22-4 282 0 304 11 63 51 117 108 146 15 8 37 15 54 18 16 3 54 3 70 0 40-7 77-27 106-56 23-23 39-48 49-79 10-30 10-31 10-181 0-151 0-151-10-182-30-90-119-146-214-135z m59 62c44 11 84 49 99 91 4 14 8 31 8 42v6h-32c-36 0-40 1-48 11-4 6-4 8-4 18s0 13 4 18c8 10 12 11 48 11h32v29h-32c-36 0-40 1-48 11-4 5-4 8-4 18s0 13 4 18c8 10 12 11 48 11h32v28h-32c-36 0-40 1-48 12-4 5-4 7-4 18 0 10 0 12 4 18 8 10 11 11 47 11h33l-1 13c-3 34-18 66-44 91-19 18-38 29-62 35-15 4-55 4-70 0-35-9-66-33-86-65-12-19-21-48-21-68v-6h33c36 0 39-1 47-11 4-6 5-8 5-18 0-11-1-13-5-18-8-11-12-12-48-12h-32v-28h32c36 0 40-1 48-11 4-5 5-8 5-18s-1-13-5-18c-8-10-12-11-48-11h-32v-29h32c36 0 40-1 48-11 4-5 5-7 5-18s-1-12-5-18c-8-10-12-11-48-11h-32v-6c0-20 9-49 21-68 22-35 55-58 94-67 14-3 47-2 62 2z" horiz-adv-x="1000" />

<glyph glyph-name="category-gifts" unicode="&#xe903;" d="M351 5c-8 2-15 10-18 19-1 3-1 63-1 156 0 83-1 150-1 150-1 0-11-3-22-7-32-11-63-17-149-30-53-8-59-8-68-1-8 5-10 12-20 55-16 68-19 88-19 138s3 71 19 138c5 23 11 45 12 47 3 6 11 12 19 14 9 2 122-15 172-26 27-6 46-13 99-36 41-18 46-20 49-18 6 5 19 12 34 17 15 5 16 5 44 5s29 0 44-5c15-5 28-12 34-17 2-2 7 0 49 18 53 23 72 30 99 36 50 11 162 28 172 26 8-2 15-8 19-14 1-2 7-24 12-47 16-67 18-87 18-138s-2-70-18-138c-10-43-13-50-20-55-9-7-15-7-68 1-86 13-117 19-149 30-11 4-21 7-22 7 0 0-1-69-1-153l-1-154-4-7c-8-11-23-16-35-11-3 1-33 25-67 52-34 28-62 50-62 50s-29-23-63-51c-70-56-71-57-87-51z m126 159l12 9h24l12-9c6-5 28-23 49-40l38-30v262l-15 7c-14 5-16 6-18 4-6-5-19-12-34-17-28-9-61-9-88 0-15 5-28 11-34 17-2 2-4 1-18-4l-15-7v-262l38 30c20 17 43 35 49 40z m-226 204c27 6 57 16 95 32 17 8 32 14 32 15 0 0-2 5-5 10-9 19-12 33-12 60s3 42 12 60c3 6 5 11 5 11 0 0-15 7-32 14-38 17-68 27-95 33-27 6-119 20-120 19-1-2-14-65-17-85-4-26-4-77 0-103 3-20 16-83 17-85 1-2 93 13 120 19z m627 14c11 53 13 67 13 103 0 23-1 39-3 52-3 20-16 83-17 85-1 1-79-11-112-17-30-6-64-18-103-35-17-7-32-14-32-14-1 0 2-5 4-11 10-18 13-32 13-60s-3-41-13-60c-2-5-5-10-4-10 0-1 15-7 32-15 38-16 68-26 96-32 27-6 117-21 118-19 1 0 5 15 8 33z m-342 27c30 15 47 43 47 76s-17 61-47 76l-13 7h-44l-13-7c-22-11-39-30-45-53-5-20-2-46 7-63 9-18 33-37 51-41 4-1 15-2 26-1 17 0 19 0 31 6z" horiz-adv-x="1000" />

<glyph glyph-name="category-electronics" unicode="&#xe904;" d="M237-65c-17 8-60 49-83 78-57 71-89 149-99 241-3 24-1 94 2 117 4 24 15 65 22 85 9 24 28 64 42 85 46 74 108 131 187 169 31 16 52 24 81 31 75 19 149 19 224 0 29-7 50-15 81-31 78-38 141-95 187-169 13-21 33-61 42-85 7-20 18-61 21-85 4-23 6-93 3-117-10-92-42-170-99-241-24-29-67-70-83-78-5-3-17-3-264-3s-259 0-264 3z m521 68c55 49 98 118 118 190 32 113 13 231-51 329-73 109-196 175-324 175-102 0-202-42-275-116-92-92-133-226-109-352 17-88 62-169 127-226l15-13h484l15 13z m-283 46c-16 4-27 10-41 23-13 13-22 28-28 44-5 17-5 42 0 59 8 26 28 48 52 60l14 6 0 121 1 120 5 6c13 17 33 17 46 0l5-6 1-120 0-121 14-6c34-16 55-50 55-89 0-31-7-49-29-71-8-7-18-16-23-18-20-11-48-14-72-8z m46 61c14 8 22 22 20 39-2 31-37 48-62 31-12-8-18-19-19-33 0-9 0-12 5-20 11-22 36-29 56-17z m-369 166c-20 10-20 41 0 51 7 3 10 3 41 3 36 0 40 0 48-8 12-11 12-30 0-42-8-7-12-8-48-8-31 0-34 0-41 4z m617-2c-19 9-23 34-8 48 8 8 12 8 48 8 30 0 34 0 41-3 20-10 20-41 0-51-7-4-10-4-42-4-24 0-35 1-39 2z m-479 202c-7 3-51 48-54 54 0 2-1 7-1 12 0 11 4 18 13 25 7 4 21 5 28 1 7-3 52-49 54-55 2-6 2-19-1-24-8-15-24-21-39-13z m398-2c-5 2-13 9-16 15-2 5-3 18 0 24 2 6 47 52 53 55 3 1 9 2 14 2 10 0 18-4 24-13 3-5 4-7 3-17l0-11-22-23c-12-13-25-25-29-28-7-5-19-7-27-4z m-199 84c-4 2-8 6-11 10l-5 6v78l5 6c13 17 33 17 46 0l5-6v-78l-5-6c-6-8-14-13-23-13-4 0-9 2-12 3z" horiz-adv-x="1000" />

<glyph glyph-name="category-fashion" unicode="&#xe905;" d="M192-106c-7 5-14 17-14 25 0 3 32 113 70 245l70 240-8 108c-5 60-9 109-9 110s-18-2-39-5c-24-3-42-4-45-3-9 1-17 8-21 15-4 9-18 123-16 132s8 17 15 20c4 1 29 5 59 9 53 7 55 7 106 7 58 0 58 0 66-11 4-4 5-8 6-20 2-16 6-28 14-39 12-16 35-28 55-28s43 12 55 28c8 11 12 23 14 39 1 12 2 16 6 20 8 11 8 11 66 11 51 0 53 0 106-7 30-4 55-8 58-9 8-3 13-11 15-20s-11-123-15-132c-4-7-13-14-21-15-4-1-21 0-45 3-21 3-39 5-39 5s-4-50-9-110l-8-108 69-238c75-257 74-253 66-263-2-3-6-7-9-9l-5-4h-608l-5 4z m563 55c0 1-114 397-121 418-1 3-9 3-133 3h-132l-3-8c-97-335-119-412-119-413 0-1 110-2 254-2 145 0 254 1 254 2z m-119 596c10 123 10 125 19 133 10 8 14 8 58 2 22-3 41-5 41-4 0 0 2 12 4 26l3 27-5 1c-34 5-72 9-100 9h-32l-3-10c-11-34-40-66-73-80-29-11-66-11-94 0-33 14-62 46-73 80l-3 10h-32c-28 0-66-4-100-9l-5-1 3-27c2-14 3-26 4-26 0-1 18 1 41 4 44 6 48 6 58-2 9-8 9-10 18-133l9-116h254l8 116z" horiz-adv-x="1000" />

<glyph glyph-name="category-hot-deals" unicode="&#xe906;" d="M922 354l-24 206c93 67 132 181 76 237-24 23-61 31-102 21-36-9-74-32-105-63-1 0-1-1-1-1l-276 32-490-490 432-432z m-36 407c21 5 38 3 47-6 21-22 2-82-43-125l-7 58-48 48c17 12 35 21 51 25z m-374-37l212-24c-9-16-15-32-19-48l-21 20-42-41 125-125 41 42-41 41c-9 9-11 26-6 47 5 18 15 38 29 56l8-1 29-30 33-286-428-428-349 349z m-188-314c-49 0-88-39-88-88 0-48 39-88 88-88 48 0 88 40 88 88 0 49-40 88-88 88z m0-117c-16 0-30 13-30 29 0 16 14 29 30 29s29-13 29-29c0-16-13-29-29-29z m293-59c48 0 88 40 88 88 0 49-40 88-88 88s-88-39-88-88c0-48 39-88 88-88z m0 117c16 0 29-13 29-29 0-16-13-29-29-29s-29 13-29 29c0 16 13 29 29 29z m-146 152l58-10-59-352-58 10z" horiz-adv-x="1000" />

<glyph glyph-name="tag-percent" unicode="&#xe907;" d="M991 835c-11 12-30 12-41 0l-85-85c-6 2-11 4-17 6l-265 65c-30 8-62-1-84-23l-473-473c-35-34-35-90 0-124l331-332c34-34 90-34 125 0l472 474c22 22 31 54 24 84l-66 265c-1 6-3 11-6 16l85 86c12 11 12 30 0 41z m-70-422c2-10-1-21-8-28l-473-474c-11-12-30-12-41 0l-332 331c-11 12-11 30 0 42l474 473c5 5 13 8 21 8 2 0 4 0 7 0l249-62-71-71c-32 16-73 10-100-17-34-34-34-90 0-124 17-17 40-26 62-26 23 0 45 9 63 26 27 27 32 67 17 100l70 71 62-249z m-191 119c-11-11-30-11-41 0-12 12-12 30 0 42 5 6 13 8 20 8 8 0 15-2 21-8l0 0c12-12 12-30 0-42z m-248-41c-35 34-91 34-125 0-34-34-34-90 0-124 34-35 90-35 125 0 34 34 34 90 0 124z m-42-83c-11-11-30-11-41 0s-12 30 0 42c11 11 30 11 41 0 12-12 12-30 0-42z m83-207c-34 34-90 34-124 0-35-34-35-90 0-124 34-35 90-35 124 0 34 34 34 90 0 124z m-41-83c-12-11-30-11-42 0-11 12-11 30 0 42 12 11 30 11 42 0 11-12 11-30 0-42z m174 190c-2 16-17 27-33 26l-373-42c-16-2-27-16-25-32 1-15 14-26 29-26 1 0 2 0 3 0l373 41c16 2 27 17 26 33z" horiz-adv-x="1000" />

<glyph glyph-name="console" unicode="&#xe908;" d="M1000 218c-3 57-13 121-28 181-15 57-34 110-56 152-87 153-182 129-295 99-36-9-75-19-115-22h-12c-40 3-79 13-115 22-113 29-208 54-295-101-22-41-42-94-56-152-15-59-25-123-27-180-3-64 3-110 17-142 14-30 34-49 60-56 23-7 51-4 80 8 48 20 104 63 159 114 39 37 111 56 183 56s145-19 183-56c55-51 111-94 160-114 28-11 56-15 79-8 25 7 46 25 60 57 14 31 20 77 18 142z m-60-125c-8-17-18-27-30-31-14-3-31-1-51 7-44 17-95 56-145 103-47 47-130 71-214 71s-167-24-215-69c-51-47-103-87-145-103-20-7-37-11-51-6-12 4-22 13-30 31-10 24-15 62-12 119 2 54 11 115 26 172 14 54 31 104 52 141 69 123 148 103 243 79 39-10 78-20 122-24 1 0 1 0 3 0h13c2 0 2 0 3 0 45 4 84 14 123 24 95 23 174 44 243-79 21-37 39-86 52-141 14-57 24-117 26-172 3-57-2-95-13-122z m-555 368c-12 11-27 20-44 21-2 16-9 32-20 44l-2 1c-13 14-31 21-51 21s-38-9-51-21c-11-11-20-28-21-45-17-1-32-9-45-20l-1-1c-14-14-21-31-21-51s9-39 21-51c13-13 27-20 46-21 1-18 9-34 21-45 14-14 31-21 51-21s39 8 51 21c12 12 20 27 22 45 17 1 33 8 44 21 14 13 22 31 22 51s-9 38-22 51z m-31-70c-5-5-11-7-18-7h-18c-12 0-23-10-23-24v-16c0-8-3-14-8-19s-11-7-19-7c-7 0-13 2-18 7s-8 11-8 19v17c0 13-10 24-23 24h-18c-7 0-14 2-19 7-3 4-7 10-7 18s2 13 7 18c0 0 0 0 2 2 5 3 11 6 17 6h18c12 0 23 10 23 24v17c0 8 3 14 8 19s11 7 18 7c8 0 14-2 19-7 0 0 0 0 1-2 4-4 7-11 7-17v-17c0-13 9-24 23-24h18c7 0 13-3 18-8s8-11 8-18c0-8-3-14-8-19z m406 107c0-24-19-43-43-43s-44 19-44 43c0 24 20 44 44 44s43-20 43-44z m0-177c0-24-19-43-43-43s-44 19-44 43c0 24 20 44 44 44s43-20 43-44z m-88 89c0-24-20-44-44-44s-43 20-43 44c0 24 19 43 43 43s44-19 44-43z m177 0c0-24-20-44-44-44s-43 20-43 44c0 24 19 43 43 43s44-19 44-43z" horiz-adv-x="1000" />

<glyph glyph-name="category-furniture" unicode="&#xe909;" d="M315-113c-13 7-13 9-13 63 1 43 1 47 4 51 8 11 5 10 91 11l78 0v117l-254 1-11 5c-34 16-52 54-42 89 7 27 25 47 51 55 9 3 17 3 133 3h123v50h-55c-65 0-76 1-93 9-22 11-41 33-47 55-2 10-28 277-28 294 0 25 8 45 25 62 13 13 28 20 60 28 113 29 224 29 336-1 30-9 41-14 54-29 17-17 25-37 25-59 0-18-27-284-30-295-7-27-29-50-57-59-10-4-14-4-74-5l-64 0v-50h123c116 0 124 0 133-3 26-8 44-28 51-55 9-35-9-73-42-89l-11-5-254-1v-117l78 0c85-1 83 0 91-11 3-4 3-8 4-51 0-54 0-56-13-63-13-6-25-3-34 9-3 4-4 7-4 34l-1 29h-121l-1-29c0-32-1-34-12-42-6-5-20-5-27 0-11 8-11 10-12 42l0 29h-121l-1-29c0-27-1-30-4-34-9-12-21-15-34-9z m458 298c8 6 11 12 11 20s-3 15-11 21c-5 4-5 4-266 4-144 0-264 0-268 0-19-3-28-25-16-40 9-10-10-10 280-9 265 0 265 0 270 4z m-125 201c9 2 19 11 23 19 1 5 7 51 16 146 15 157 15 149 2 162-6 6-9 7-25 12-104 30-216 31-320 2-9-3-20-6-24-8-7-4-16-16-18-25-1-7 26-281 29-288 1-3 5-8 8-11 11-11 5-11 161-11 97 0 143 0 148 2z m-224 61c-5 2-14 9-16 15-1 4-18 176-18 187 0 8 5 16 12 21 5 3 7 4 16 3 9 0 11-1 15-5 3-3 6-8 7-11 3-9 19-185 17-191-1-8-9-17-17-19-7-2-9-2-16 0z m133 4c-5 2-8 5-11 10l-3 7 9 94c6 74 9 96 11 100 5 9 14 14 25 13 10-1 17-5 21-15 3-7 3-7-5-100-10-104-10-103-22-109-9-5-16-5-25 0z" horiz-adv-x="1000" />

<glyph glyph-name="category-garden" unicode="&#xe90a;" d="M488-117c-7 3-14 11-16 19-1 3-2 17-2 30v24l-39 39-38 39-8-4c-21-11-45-15-65-11-40 8-69 32-90 72-14 28-32 86-40 127-6 32-6 36-1 46 8 15 21 18 54 11 56-12 108-31 138-48 13-7 40-35 48-47 12-21 14-26 13-53 0-22 0-25-4-36l-5-13 37-37v319l-11 3c-45 13-83 50-97 96-6 21-7 37-6 134 0 99 0 99 10 124 9 22 26 44 46 60 12 10 36 22 51 26 26 6 56 5 82-3 41-13 78-52 92-95 6-20 7-41 6-136-1-76-1-91-4-100-7-29-20-51-41-71-20-19-37-29-66-37-1 0-2-25-2-117v-116l20 20 20 20-3 6c-6 11-10 31-10 45 0 40 23 80 59 101 32 19 98 41 154 51 18 4 25 3 34-4 6-5 11-15 11-23 0-14-16-81-28-114-15-43-26-64-47-84-24-23-44-32-72-34-20 0-31 2-46 8l-10 5-82-82v-68c0-41-1-69-2-73-2-8-9-16-16-19-7-3-18-3-24 0z m-133 199c25 13 36 39 25 60-14 28-37 43-95 60-31 9-32 9-32 6 0-4 12-42 18-61 11-31 23-49 39-61 15-10 29-12 45-4z m324 93c19 9 35 27 46 57 6 16 22 66 22 71 0 5-64-15-88-27-31-16-48-43-42-65 4-16 19-32 34-38 8-3 18-2 28 2z m-158 245c28 7 54 34 61 62 1 7 2 60 1 60-1 0-8-4-16-8-9-5-23-10-31-13-20-6-51-6-72-1-13 4-34 13-42 19-3 2-5 3-6 3s-1-12-1-27c0-32 2-42 13-59 20-31 57-46 93-36z m-12 158c3 1 8 5 11 8 8 10 9 23 1 34-6 7-12 10-25 12-11 2-17 5-22 14-3 6-4 9-3 17 0 12 3 17 12 24 11 7 39 4 59-7 12-7 27-22 33-35l5-9 2 7c2 10 2 30-1 40-9 36-45 64-81 64-39 0-76-29-83-66-3-13-2-38 3-49 4-13 17-30 27-38 20-15 47-22 62-16z" horiz-adv-x="1000" />

<glyph glyph-name="category-lanterns-lighting" unicode="&#xe90b;" d="M500 844c-208 0-375-167-375-375 0-46 8-88 21-125l104-209c13-16 25-33 42-41 0 0 0 0 0 0v-42c0-25 16-42 41-42v-41c0-25 17-42 42-42v-42c0-25 17-41 42-41h166c25 0 42 16 42 41v42c25 0 42 17 42 42v41c25 0 41 17 41 42v42c0 0 0 0 0 4 17 4 34 21 42 37l104 209c13 37 21 79 21 125 0 208-167 375-375 375z m83-959h-166v42h166v-42z m42 84h-250v41h250v-41z m42 83h-334v42h334v-42z m96 292l-84-167h-358l-83 167c-21 37-30 79-30 125 0 162 130 291 292 291s292-129 292-291c0-46-9-88-29-125z m-263 375v-42c117 0 208-92 208-208h42c0 137-112 250-250 250z" horiz-adv-x="1000" />

<glyph glyph-name="category-mechanics" unicode="&#xe90c;" d="M500 719c-192 0-350-142-371-329l84-9c16 142 141 254 287 254s271-112 288-258l83 8c-21 192-179 334-371 334z m0-459c0 0 0 0 0 0l-87 225-75-33 83-225c-29-21-46-54-46-92 0-70 54-125 125-125s125 55 125 125c0 71-54 125-125 125z m42-166h-84v83h84v-83z m-42 750c-275 0-500-225-500-500s225-500 500-500 500 225 500 500-225 500-500 500z m0-917c-229 0-417 188-417 417s188 416 417 416c229 0 417-187 417-416s-188-417-417-417z" horiz-adv-x="1000" />

<glyph glyph-name="category-motorcycles" unicode="&#xe90d;" d="M838 362c-29 0-56-7-79-21l-42 56c53 39 108 57 112 58 6 2 11 6 13 12 3 6 3 12 0 18-72 150-183 163-188 164-9 1-17-4-21-12-4-8-3-17 3-24 13-14 19-29 17-47-1-7-3-15-6-23-122 40-199-17-227-42-67 23-128 35-182 35-82 0-117-29-121-32-6-5-8-14-6-22 2-7 9-13 17-15 78-14 133-41 171-72l-49-59c-26 17-56 26-88 26-89 0-162-72-162-162 0-89 73-161 162-161 89 0 162 72 162 161 0 42-16 80-42 109l47 56c69-82 55-178 54-184-1-6 1-13 5-17 4-5 10-8 16-8h191c6 0 12 3 16 8 4 4 6 11 5 17-13 83 22 145 68 189l41-54c-30-30-49-70-49-116 0-89 73-161 162-161 89 0 162 72 162 161 0 90-73 162-162 162z m-214 144c-21-27-49-51-67-65-32 16-62 30-91 42 27 20 80 45 158 23z m-343-306c0-65-53-119-119-119-66 0-119 54-119 119 0 66 53 120 119 120 22 0 42-6 60-16l-76-90 32-27 76 89c17-20 27-47 27-76z m290-1h-144c1 62-16 226-222 293 10 1 21 2 33 2 57 0 157-17 311-97 7-3 15-3 22 2 4 3 115 79 124 162 1 10 1 20-1 29 29-15 67-45 99-103-63-27-233-114-222-288z m267-118c-66 0-119 54-119 119 0 32 12 60 32 81l70-93 34 25-70 94c16 8 34 13 53 13 66 0 119-54 119-120 0-65-53-119-119-119z" horiz-adv-x="1000" />

<glyph glyph-name="category-sound-video" unicode="&#xe90e;" d="M350 86h-148c-53 0-96 43-96 96v198c0 54 43 97 96 97h148c16 0 29-14 29-30v0-332c0-16-13-29-29-29v0z m-148 332c-21 0-38-17-38-37v-199c0-21 17-37 38-37h118v273z m374-459h-96c-88 0-160 72-160 160v325c0 88 72 159 160 159h96c16 0 30-13 30-29v0-586c0-16-14-29-30-29v0z m-96 586c-56 0-101-45-101-101v-325c0-56 45-101 101-101h67v527z m220-388c-16 0-29 13-29 29 0 8 3 16 9 21l0 0c19 19 30 45 30 74s-11 56-30 75v0c-6 5-9 12-9 20 0 16 13 30 29 30 9 0 16-4 21-9v0c30-30 48-70 48-116s-18-86-48-115l0 0c-5-6-12-9-21-9 0 0 0 0 0 0h0z m90-90c0 0 0 0 0 0-16 0-29 14-29 30 0 8 3 15 8 20v0c42 42 68 100 68 164s-26 122-68 164l0 0c-5 5-8 13-8 21 0 16 13 29 29 29 8 0 16-3 21-8v0c113-114 113-298 0-411-5-5-13-9-21-9 0 0 0 0 0 0h0z" horiz-adv-x="1000" />

<glyph glyph-name="category-steering" unicode="&#xe90f;" d="M5 275v0c0 0 0 0 0 0l6-32c40-195 193-349 388-389l32-6 54-4c5 0 10 0 15 0 5 0 10 0 16 0l53 4c0 0 0 0 0 0l32 6c195 40 349 194 389 389l5 32c0 0 0 0 0 0 0 0 0 0 0 0l5 53c0 6 0 11 0 16s0 10 0 15l-5 54c0 0 0 0 0 0 0 0 0 0 0 0l-6 31c-47 230-251 400-489 400-238 0-442-170-489-400l-6-31c0 0 0 0 0 0v0l-4-54c-1-5-1-10-1-15s0-10 1-16z m584 157c3-3 6-7 9-10l0-1c18-22 27-49 27-77 0-8-1-16-2-23-4-20-12-39-25-55-6-7-13-14-20-20-22-18-50-27-78-27-8 0-15 1-23 2-20 4-38 12-55 25-7 6-14 13-20 20-18 22-27 49-27 78 0 28 9 55 27 78l0 0c24 30 60 47 98 47 34 0 65-13 89-37z m-490-200l249-31c1-1 3-2 4-3 0-1 1-2 2-3 1-1 2-2 3-3l31-250c-140 39-250 150-289 290z m375-304l-27 214c0 0 1 0 1 0 7-2 15-3 23-4 2-1 3-1 5-1 8-1 16-2 24-2 8 0 16 1 24 2 2 0 3 0 5 1 8 1 16 2 23 4 1 0 1 0 1 0l-27-214c-17-1-35-1-52 0z m138 14l16 127 15 123c1 1 2 2 3 3 1 1 2 2 2 3 1 1 3 2 4 3l250 31c-39-140-150-251-290-290z m304 428c0-9 1-18 1-26s-1-18-1-26l-214-27c0 0 0 0 0 1 2 7 3 15 4 22 0 2 1 4 1 6 1 8 1 16 1 24s0 16-1 23c0 2-1 4-1 6-1 8-2 16-4 23 0 0 0 0 0 0l204-25z m-817 85c49 178 213 305 401 305s352-127 402-305l-250 32c-1 0-2 1-3 2-2 2-4 4-6 6-3 3-7 6-10 9-3 2-5 4-7 6-4 3-7 5-11 8-3 1-5 3-8 5-4 2-8 4-11 6-3 1-6 3-9 4-4 2-8 3-12 5-3 1-6 2-8 3-5 2-9 3-14 4-2 1-5 2-8 2-5 1-10 2-15 3-2 0-5 1-7 1-8 1-15 1-23 1s-15 0-23-1c-2 0-5-1-7-1-5-1-10-2-15-3-3 0-6-1-8-2-5-1-9-2-13-4-3-1-6-2-9-3-4-2-8-3-12-5-3-1-6-3-9-4-3-2-7-4-11-6-3-2-5-4-8-6-3-2-7-4-10-7-3-2-5-4-8-6-3-3-6-6-9-8-3-3-5-5-7-7-1-1-2-2-3-2l-245-31z m200-59c0 0-1 0-1 0-1-7-3-15-4-23 0-2-1-4-1-6-1-7-1-15-1-23s0-16 1-24c0-2 1-4 1-6 1-7 2-15 4-23 0 0 1 0 1 0l-215 27c0 8-1 17-1 26s1 17 1 26l12 1z" horiz-adv-x="1000" />

<glyph glyph-name="category-external-accessories" unicode="&#xe910;" d="M874 63c14 18 24 39 29 62h66v192c0 22-4 43-13 64l-68 172c-33 82-111 135-199 135h-236c-95 0-172-77-172-172 0-50-34-94-82-106l-38-9c-76-19-130-88-130-167v-109h128c5-23 16-44 29-62h-188v-63h1000v63h-126z m-408 62h131c5-23 15-44 29-62h-189c14 18 24 39 29 62z m190 31c0 52 42 94 94 94s94-42 94-94-42-93-94-93-94 42-94 93z m-562 78c0 50 34 94 82 106l38 9c76 20 130 88 130 167 0 60 49 109 109 109h236c62 0 117-37 140-95l69-173c6-13 8-26 8-40v-129h-3c0 0 0 0 0 0 0 0 0 1 0 1-2 9-5 18-8 26-2 3-3 6-5 9-2 6-5 11-9 16-2 4-4 6-6 9-4 5-7 9-11 14-3 3-6 5-8 8-5 4-9 7-14 11-3 2-6 4-9 6-5 3-10 6-15 9-4 1-7 3-10 4-6 3-13 4-19 6-3 1-6 2-9 3-10 1-20 3-30 3s-20-2-30-3c-3-1-6-2-9-3-6-2-12-3-18-6-4-1-7-3-10-4-6-3-11-6-16-9-3-2-6-4-9-6-5-4-9-7-13-11-3-3-6-5-9-8-4-5-7-9-11-14-2-3-4-5-6-9-4-5-6-10-9-16-2-3-3-6-4-9-4-8-7-17-9-26 0 0 0-1 0-1 0 0 0 0 0 0h-131c0 0 0 0 0 0 0 0-1 1-1 1-2 9-5 18-8 26-1 3-3 6-4 9-3 6-6 11-9 16-2 4-5 6-7 9-3 5-7 10-11 14-2 3-5 5-8 8-4 4-9 7-13 11-3 2-6 4-10 6-4 3-10 6-15 9-3 1-7 3-10 4-6 3-12 4-19 6-3 1-6 2-9 3-9 1-19 3-29 3s-21-2-30-3c-3-1-6-2-9-3-7-2-13-3-19-6-3-1-7-3-10-4-5-3-10-6-15-9-4-2-7-4-10-6-4-4-9-7-13-11-3-3-6-5-8-8-4-4-8-9-11-14-2-3-5-5-7-9-3-5-6-10-9-16-1-3-3-6-4-9-3-8-6-17-8-26 0 0 0-1-1-1 0 0 0 0 0 0h-65v46z m125-78c0 52 42 94 94 94s93-42 93-94-42-93-93-93-94 42-94 93z" horiz-adv-x="1000" />

<glyph glyph-name="category-fluids" unicode="&#xe911;" d="M976 466l-79 50-302-107-56 33h-143v19h61v51h-173v-51h61v-19h-160l-105 61-80-84 171-221 1 2v-29h369l355 286 52-34 28 43z m-909-50l22 23 83-48v-111l-105 136z m456-194h-300v169h302l65-38 171 61-238-192z m477 96c0-21-17-38-38-38-21 0-38 17-38 38 0 21 38 87 38 87s38-66 38-87z" horiz-adv-x="1000" />

<glyph glyph-name="category-internal-accessories" unicode="&#xe912;" d="M500 844c-275 0-500-225-500-500s225-500 500-500 500 225 500 500-225 500-500 500z m0-917c-229 0-417 188-417 417s188 416 417 416c229 0 417-187 417-416s-188-417-417-417z m146 625c-17-17-17-42 0-58 42-42 62-92 62-150 0-117-91-209-208-209s-208 92-208 209c0 58 21 108 62 150 17 16 17 41 0 58s-41 17-58 0c-54-54-88-129-88-208 0-163 130-292 292-292s292 129 292 292c0 79-34 154-88 208-16 17-41 17-58 0z m-146-208c25 0 42 16 42 41v250c0 25-17 42-42 42s-42-17-42-42v-250c0-25 17-41 42-41z" horiz-adv-x="1000" />

<glyph glyph-name="category-chains" unicode="&#xe913;" d="M83 536c3-3 6-5 11-5h41l196-182c14-13 32-21 53-21 0 0 0 0 0 0h116c0 0 0 0 0 0 4 0 7 1 10 3l0 0 132 103c0-1 0-1 1-2l-140-238-10 16c-3 4-8 7-13 7-1 0-2 0-3 0l-3-1c-2 0-4 0-6-1-7-1-12-2-17-4l1 0c-5-2-10-6-10-12l0 0-4-28c-8-5-15-10-21-15l0 0-26 6c-1 0-2 0-4 0-5 0-9-2-12-6l0 0c-5-7-10-14-14-23l-1 0c-1-3-1-5-1-7 0-4 1-7 3-10l0 0 8-10-127-61c-5-2-9-8-9-14 0-1 1-2 1-3l0 0 15-78c2-6 6-11 12-12l0 0 266-63c1 0 2 0 3 0 0 0 0 0 0 0h0c0 0 0 0 0 0 3 0 6 1 8 2l0 0 78 47c5 3 8 8 8 13 0 3 0 5-1 6l0 0-8 19c3 1 6 3 8 5l0 0c4 6 9 13 13 20l0 1c1 2 2 4 2 7 0 4-1 7-3 10l0 0-17 21c3 8 5 17 6 27l0 1 22 14c5 2 8 7 8 13 0 1 0 1 0 2l0 0c-1 4-1 8-2 12-1 4-2 8-3 12-2 6-7 11-13 11l0 0-5 1 194 97c65 33 110 99 111 175l0 1c20 30 32 68 32 108 0 112-91 203-203 203 0 0 0 0 0 0h0c-6 0-11 0-16 0v0c0 9-7 16-16 16v0c0 0 0 0 0 0-46 0-88-15-123-39l1 1-189-130-75 65c7 11 11 25 11 40v0h40c17-19 42-31 70-31 52 0 94 42 94 94s-42 94-94 94c-28 0-53-12-70-32l0 0h-82c-19 0-35-11-43-27l0-1-9-20c-19-4-35-15-46-30l0 0h-94c0 26-21 47-47 47s-47-21-47-47v0-109c0-5 2-8 5-11v0z m580-131c15-17 35-30 57-38l1 0-83-135-66-31c-2 1-4 1-6 1-4 0-7-1-9-3l0 0-19-14-5-2 0 0z m103-92c4 0 8 0 13 0 6 1 12 5 13 11l1 0 8 29c10 2 18 5 26 8l-1 0 20-15c-31-24-66-46-103-64l-3-1-50-24 46 75 3-8c2-6 7-10 14-11l0 0c4 0 8 0 13 0z m-5 47c1 0 3-1 5-1s3 1 5 1l-5-16h0z m-293-201l3 25 1 0 13-20c0-1 1-2 2-3l0 0-24-12c2 3 4 6 5 9l0 1z m-74-30l18-4-13-6-6 8c1 1 1 1 1 2z m210-135l-1 2 1-2z m-3 82c-4-3-7-8-7-13v0c0 12-3 24-7 34l0 0 1 0c3-3 6-5 10-5l0 0 24-3z m211 168l-253-127c-5-2-8-7-8-13 0-4 1-6 2-9l0 0c6-9 10-20 10-33 0-8-2-17-6-25l0 1c0-2-1-4-1-6 0-2 1-4 1-6l0 0 33-82-61-37-250 59-11 56 485 230c57 27 105 60 148 100l-1-1c-13-47-45-86-87-107l-1 0z m34 141c3 2 6 4 8 6l6-17z m75 127l15 10c1-6 2-14 2-22s-1-16-2-23l0 1-15 10c0 4 0 8 0 12s0 8 0 12z m-20 25c-1 3-2 7-3 10l20 1z m17-85l-20 1c1 3 2 7 3 10z m-27 166c10-11 19-24 27-38l0-1-19 0c-5 7-10 14-15 20l0 0z m8-197l19 0c-3-6-6-11-9-16l0 1 0-1-2-2 0-1c0 0-1-1-1-1-5-6-11-11-16-16l-6 16c5 6 10 13 14 20l1 0z m-39 205l-6-18q-4 4-9 7z m-16 27l-18-14c-7 3-15 6-24 8l-1 0-7 22c19-3 36-9 51-17l-1 1z m-78 3h0l5-16q-5 1-10 0z m-328-133l191 132c25 17 56 29 89 32l1 0v-66c0-9 7-16 15-16 2 0 3 1 4 1l0 0c8 2 18 3 27 3 13 0 25-2 36-6l0 0c43-15 74-55 74-103 0-60-49-109-109-109 0 0 0 0 0 0h0c-7 0-13 0-19 1l1 0c-31 5-57 23-73 47l0 1c-1 0-1 1-1 1l0 0c-4 6-8 12-10 19l0 1c-3 6-8 10-15 10-2 0-3 0-4 0l0 0-9-3c-2 0-3-1-5-3l0 1-136-107h-57z m31 258c34 0 62-28 62-62s-28-63-62-63c-35 0-63 28-63 63v0c0 34 28 62 63 62v0z m-63-257v-80l-58 58c-2 3-4 7-4 11 0 0 0 0 0 0v0 65z m-103 217c2 5 8 9 14 9h64c-4-9-6-20-6-31s2-22 6-32l0 1h-28c-10 22-30 38-53 44l-1 0z m-22-38c26 0 47-21 47-47s-21-47-47-47c-26 0-47 21-47 47v0c0 26 21 47 47 47v0z m-156-31h80c-1-5-2-10-2-16s1-11 2-16l0 1h-73l-7 6z m-47 47c9 0 16-7 16-16s-7-15-16-15c-8 0-15 7-15 15v0c0 9 7 16 15 16v0z m-15-60c4-2 10-3 15-3h0c6 0 11 1 16 3l0 0v-18c0-5 2-9 4-11l16-16c3-3 7-5 11-5h94c14-19 37-31 62-31 12 0 22 3 32 7l0 0v-72c0 0 0 0 0 0 0-13 5-25 13-33l80-80v-41h-22c0 0 0 0 0 0-12 0-24 5-32 13l-201 186c-2 3-6 5-10 5h-41l-37 37z m437 60c0-17-14-31-31-31s-31 14-31 31c0 17 14 31 31 31s31-14 31-31z m-234-47h31v-31h-31v31z m495-234c1 0 3 0 5 0 34 0 62 28 62 62 0 35-28 63-62 63s-63-28-63-63c0-33 25-60 57-62l1 0z m5 93c1 0 1 0 2 0 16-1 29-15 29-31 0-17-14-31-31-31s-32 14-32 31c0 17 14 31 32 31h0z m-236-539c-3 5-8 10-15 10-1 0-2-1-3-1l0 0c-4-1-8-1-12-1-27 0-50 17-59 42l0 0c-2 6-8 10-14 10-3 0-5 0-7-1l0 0-83-37c-5-2-9-8-9-14 0-7 5-14 12-15l0 0 141-32c1 0 2 0 3 0 0 0 0 0 0 0v0c0 0 1 0 1 0 2 0 4 1 7 2l-1 0 32 15c5 3 8 8 8 14 0 2 0 4-1 6l0 0z m-137 13l26 11c4-7 9-14 15-20l0 0z m91 73h32v-31h-32v31z m135 531l29 19 17-26-29-19-17 26z m-148-100l120 81 18-26-121-81-17 26z" horiz-adv-x="1000" />

<glyph glyph-name="category-frames" unicode="&#xe914;" d="M968 19l-79 318v0l-61 230-32 124c-1 7-7 12-15 12-1 0-2 0-3 0l0 0-64-15c-7-1-12-7-12-15 0-1 0-2 0-3l0 0 26-119 1-4h-389l-12 51c-2 6-8 11-15 11-2 0-3 0-4 0l0 0-63-16c-7-1-12-8-12-15 0-2 1-3 1-5l0 0 56-175-256-294c-2-3-4-6-4-10 0 0 0 0 0 0v0-16c0 0 0 0 0 0 0-6 4-11 9-14l0 0 19-9-19-10c-5-2-9-8-9-14 0 0 0 0 0 0v0-31c0-9 7-16 16-16v0h398c0 0 0 0 0 0 20 0 38 8 52 21l0 0 308 279 86-289c2-6 8-11 15-11 2 0 4 1 5 1l0 0 47 16c6 2 11 8 11 15 0 1 0 2-1 4l0-1z m-198 650l23-93-37-5-20 90z m-707-647l22 11c5 2 9 8 9 14 0 0 0 0 0 0v0 16c0 0 0 0 0 0 0 6-4 11-9 14l0 0-22 11 257 296c2 3 4 7 4 11 0 1 0 3-1 5l0-1-53 168 31 8 12-47c2-7 8-12 15-12h420c0 0 0 0 0 0 9 0 16 7 16 15 0 1 0 2-1 4l0-1-1 7 39 4 54-202-47-16c-2 0-4-1-6-3l0 0 0 0-302-275c-1 17-8 32-19 42l0 0 305 301c3 3 4 7 4 11 0 1 0 3 0 4l0 0-19 66c-2 7-8 11-15 11 0 0 0 0 0 0h-403c-8 0-15-7-15-15 0-2 0-3 0-4l0 0 95-356c-11-1-20-4-29-9l1 0-62 225c-2 7-8 12-15 12-5 0-9-2-12-5l0 0-195-228c-2-3-4-6-4-10 0-2 1-3 1-4l0 0 7-31c2-7 8-12 16-12 0 0 0 0 0 0h234c0-12 3-22 9-32l0 1h-321z m343 25c0 17 14 31 32 31s31-14 31-31c0-17-14-31-31-31v0c-18 0-32 14-32 31v0z m-32 406h370l13-45-294-291z m4-375h-225l-3 12 171 199z m539-58l-85 283 31 10 72-287z" horiz-adv-x="1000" />

<glyph glyph-name="category-pedals" unicode="&#xe915;" d="M953 406h-78v32c0 8-7 15-16 15v0h-78v172c0 9-7 16-15 16v0h-51l-12 50c-2 7-8 12-15 12h-63c-7 0-13-5-15-12l0 0-13-50h-38l-13 50c-1 7-7 12-15 12h-62c-7 0-14-5-15-12l0 0-13-50h-38l-13 50c-2 7-8 12-15 12h-62c-8 0-14-5-16-12l0 0-12-50h-38l-13 50c-2 7-8 12-15 12h-63c-7 0-13-5-15-12l0 0-13-51c-55-7-97-53-97-109v-422c0-69 56-125 125-125h610c8 0 15 7 15 16v0 234h78c9 0 16 7 16 16v0 31h78c9 0 16 7 16 16v0 94c0 8-7 15-16 15v0z m-265-390h-516v93h516z m62 0h-31v109c0 9-7 16-16 16v0h-547c-8 0-15-7-15-16v0-108c-45 8-78 46-78 92v96c0 0 0-1 0-1 1-1 3-2 4-3s2-3 4-4 3-2 4-3 3-2 4-3 3-2 5-3 3-2 4-3 4-1 5-2 3-2 5-2 4-2 5-2 3-2 5-2c2-1 4-1 6-2 2 0 3-1 5-1 2 0 4-1 7-1 1 0 2 0 4-1 3 0 7 0 10 0 0 0 1 0 1 0h0c7 0 13 5 15 12l0 0 13 50h38l12-50c2-7 8-12 15-12h63c7 0 13 5 15 12l0 0 13 50h38l13-50c1-7 7-12 15-12h62c7 0 14 5 15 12l0 0 13 50h38l13-50c2-7 8-12 15-12h62c8 0 14 5 16 12l0 0 12 50h38l13-50c2-7 8-12 15-12h47z m-609 437h62c9 0 16-7 16-15v0-157c0-8-7-15-16-15v0h-62c-9 0-16 7-16 15v0 157c0 8 7 15 16 15v0z m-16 29v49c0 9 7 16 16 16v0h62c9 0 16-7 16-16v0-49c-5 1-10 2-16 2h-62c-6 0-11-1-16-3l0 1z m406-216h-203v15c0 26 21 47 47 47v0h250c26 0 47-21 47-47v0-15h-141z m74-32l-8-31h-38l-8 31z m-156 0l-8-31h-38l-8 31z m395 157v-125h-63v125h-31v-188h-35l-12 49v29c0 43-35 78-78 78h-250c-43 0-78-35-78-78v-29l-12-49h-38l-11 45c8 8 14 20 14 33v250c0 26-21 47-47 47v0h-62c-26 0-47-21-47-47v0-250c0-24 18-44 42-46l0 0-7-31c-1 0-2 0-2 1-2 0-4 1-6 1-4 1-6 2-9 3l1 0c-2 0-4 1-6 2-3 2-5 3-8 4l1 0c-2 1-4 2-5 4-3 1-5 3-7 5-1 1-3 3-4 4-2 2-4 4-5 6l-1 1c-1 1-2 3-3 4-1 2-3 5-4 8l0 0c-1 2-2 3-3 5-1 3-2 6-2 9l-1 1c0 1-1 3-1 4-1 5-1 10-1 15v250c0 43 35 78 78 78h0c7 0 13 5 15 12l0 0 13 51h38l12-51c2-7 8-12 15-12h63c7 0 13 5 15 12l0 0 13 51h38l13-51c1-7 7-12 15-12h62c7 0 14 5 15 12l0 0 13 51h38l13-51c2-7 8-12 15-12h62c8 0 14 5 16 12l0 0 12 51h38l13-51c2-7 8-12 15-12h47v-171c0-9 7-16 16-16v0h78z m94-78h-63v62h63z m-251 265h-374c-9 0-16-7-16-15v0-32c0-43 35-78 78-78h250c43 0 78 35 78 78v32c0 8-7 15-16 15v0z m-15-47c0-26-21-47-47-47v0h-250c-26 0-47 21-47 47v0 16h344z" horiz-adv-x="1000" />

<glyph glyph-name="category-saddle" unicode="&#xe916;" d="M850 751c-39 38-91 62-150 62-21 0-42-4-61-9l1 0-157-46c-55-17-95-64-100-121l0-1-18-181c-3-39-20-74-44-100l0 0-259-284c-19-21-31-49-31-79 0-65 53-117 117-117 31 0 58 12 79 31l0 0 138 125h145c0 0 0 0 0 0 29 0 55 11 75 30l0 0 175 162 32 4c58 5 106 45 122 99l0 1 46 157c6 18 9 39 9 60 0 58-24 111-62 150l0 0z m-22-23l57-57c2-2 4-5 7-7l-534-489c-4-3-8-5-13-5-11 0-19 8-19 19 0 5 2 9 5 13l0 0 481 540c6-4 11-9 16-14l0 0z m-265-645c-14-13-32-20-53-20 0 0 0 0 0 0h-111l34 31h71c0 0 0 0 0 0 12 0 23 4 31 12l119 107 55 6z m-96 42l44 40c25 22 55 37 90 43l1 0-88-79c-3-2-6-4-10-4h0z m471 419c0-18-3-36-8-52l0 1-46-157c-13-43-50-74-94-78l-1 0-141-14c0 0-1 0-1 0l-39-4c-46-4-87-23-118-52l0 0-284-259c-15-14-35-23-58-23-47 0-85 39-85 86 0 22 8 43 22 58l0 0 259 284c29 31 48 72 52 117l1 1 17 181c4 45 35 82 77 95l1 0 157 46c16 5 33 7 51 7 32 0 61-8 87-22l-1 1-479-537c-8-9-13-21-13-34 0-28 23-51 51-51 13 0 25 5 34 14l0 0 531 487c17-27 28-60 28-95 0 0 0 0 0 0v0z" horiz-adv-x="1000" />

<glyph glyph-name="category-tools" unicode="&#xe917;" d="M960 630c-3 1-5 2-8 2-2 0-4 0-6-1l0 0-78-32-35 81 76 34c5 2 9 8 9 14 0 4-2 8-4 10l0 0c-40 46-99 74-164 74-121 0-219-98-219-218 0-1 0-2 0-3l0 0c0-1 0-2 0-3 0-23-9-43-23-58l0 0-194-194c-15-15-36-24-59-24-1 0-1 0-2 0l0 0c-1 0-3 1-4 1-15 0-31-2-45-5l1 0c-50-11-93-38-123-75l-1-1c-2-2-3-6-3-10 0-6 4-11 9-14l0 0 64-28-34-81-63 28c-2 1-4 2-6 2-8 0-15-6-16-14l0 0c0-7-1-14-1-21 0-121 98-219 219-219 0 0 0 0 0 0h0c7 0 14 0 21 1 96 10 173 80 193 171l0 2c3 13 5 29 5 45 0 1 0 2 0 3l0 0c0 0 0 1 0 2 0 23 9 44 23 59l0 0 192 192c17 15 39 25 64 25 0 0 1 0 2 0l0 0h0c0 0 0 0 1 0 120 0 218 98 218 218 0 9-1 18-2 26l0-1c0 5-3 10-7 12l0 0z m-210-224h-1c0 0-1 0-2 0-33 0-63-13-85-34l0 0-192-192c-20-21-33-49-33-80 0-2 1-3 1-4l0 0c0 0 0-1 0-2 0-14-2-27-5-40l1 1c-19-85-94-148-184-148-102 0-185 81-187 182l0 0 56-25c1-1 4-1 6-1 6 0 12 3 14 9l0 0 47 109c1 2 2 4 2 7 0 6-4 11-10 14l0 0-58 26c24 24 56 41 90 49l2 0c11 3 24 4 37 4 2 0 3 0 4 0l-1 0c1 0 3 0 4 0 31 0 59 13 80 33l0 0 194 194c20 21 33 49 33 80 0 1 0 2 0 4l0-1c0 1 0 2 0 3 0 18 2 35 7 52l0-2c22 80 94 137 180 137 48 0 92-18 125-48l0 0-69-31c-5-3-9-8-9-14 0-3 0-5 1-7l0 0 47-109c3-5 8-9 14-9 3 0 5 0 6 1l0 0 73 30c-1-104-85-188-188-188 0 0 0 0 0 0h0z m-405-230c-3 4-7 7-12 7-1 0-2 0-3 0l0 0-93-13c-6 0-11-4-13-9l0 0-35-92c-1-2-1-4-1-6 0-3 1-6 3-9l0 0 58-79c3-4 7-6 12-6 0 0 0 0 0 0v0c1 0 2 0 2 0l0 0 94 12c6 1 10 5 12 10l1 0 35 91c1 2 1 4 1 6 0 4-1 7-3 9l0 0z m-1-165l-76-10-47 65 29 75 75 9 48-64z m396 669c-3 5-8 8-13 8 0 0 0 0 0 0h-79c0 0 0 0 0 0-5 0-10-3-13-8l0 0-39-62c-1-3-2-6-2-9s1-6 2-8l0 0 39-62c3-5 8-8 13-8 0 0 0 0 0 0h79c0 0 0 0 0 0 5 0 10 3 13 8l0 0 39 62c1 2 2 5 2 8s-1 6-2 9l0 0z m-22-117h-61l-29 46 29 47h61l29-47z m-76-71c-2 5-7 8-13 8h-55c-5 0-10-3-13-8l0 0-28-47c-1-2-2-5-2-8s1-5 2-7l0 0 28-47c3-5 8-8 13-8h55c6 0 11 3 13 8l0 0 28 47c1 2 2 5 2 7s-1 6-2 8l0 0z m-22-86h-37l-18 32 18 31h37l18-31z m-138-54c-2 4-7 7-13 7 0 0 0 0 0 0h-63c0 0 0 0 0 0-5 0-11-3-13-7l0 0-32-55c-1-2-2-5-2-8s1-5 3-8l-1 0 32-54c2-5 8-8 13-8h63c0 0 0 0 0 0 6 0 11 3 13 8l0 0 32 54c1 3 2 5 2 8s-1 6-2 8l0 0z m-22-102h-45l-22 39 22 39h45l22-39z" horiz-adv-x="1000" />

<glyph glyph-name="search-4" unicode="&#xe918;" d="M680 223l225-225c6-7 9-17 9-27 0-23-18-42-41-42-11 0-20 4-28 11l0 0-224 224c-56-44-127-70-204-70-184 0-334 149-334 333s150 333 334 333c184 0 333-149 333-333 0-77-26-149-71-205l1 1z m-263-46c138 0 250 112 250 250s-112 250-250 250v0c-138 0-250-112-250-250s112-250 250-250v0z" horiz-adv-x="1000" />

<glyph glyph-name="secure-payment" unicode="&#xe919;" d="M543 126h-474c-11 0-20 9-20 20v374h837v-49c0-14 11-25 25-25s24 11 24 25v177c0 38-31 69-69 69h-797c-38 0-69-31-69-69v-502c0-38 31-69 69-69h474c14 0 25 11 25 25s-11 24-25 24z m-474 542h797c11 0 20-9 20-20v-79h-837v79c0 11 9 20 20 20z m423-330c0 13-11 24-25 24h-295c-13 0-24-11-24-24s11-25 24-25h295c14 0 25 11 25 25z m-320-64c-13 0-24-11-24-25s11-24 24-24h118c14 0 25 11 25 24s-11 25-25 25h-118z m-3 128h296c13 0 24 11 24 25s-11 24-24 24h-296c-13 0-24-11-24-24s11-25 24-25z m807-169h-36v57c0 71-58 129-129 129s-129-58-129-129v-57h-37c-13 0-24-11-24-25v-213c0-13 11-24 24-24h330c14 0 25 11 25 24v213c0 14-11 25-24 25z m-245 57c0 44 36 80 80 80s79-36 79-80v-57h-159v57z m220-270h-281v164h281v-164h0z" horiz-adv-x="1000" />

<glyph glyph-name="user-2" unicode="&#xe91a;" d="M662 315c72 51 118 135 118 230 0 155-125 281-281 281s-280-126-280-281c0-95 46-179 118-230h1c-192-57-330-232-330-439v0c0-19 16-35 35-35v0h913c20 0 36 16 36 35v0c-1 207-139 382-327 438l-3 1z m-373 229c0 116 94 211 210 211s212-95 212-211c0-116-95-211-212-211v0c-115 0-210 95-210 211v0z m-210-632c19 198 185 351 386 351h69c201 0 367-153 386-350v-1z" horiz-adv-x="1000" />

<glyph glyph-name="wishlist-2" unicode="&#xe91b;" d="M500-113l-409 408c-51 52-82 123-82 201s31 149 82 201v0c50 50 121 83 199 83s147-33 199-83v0l11-13 11 13c52 50 122 83 199 83s149-33 199-83v0c52-52 82-123 82-201s-30-149-82-201v0z m-210 822c-1 0-1 0-1 0-59 0-112-24-149-62v0c-38-39-62-92-62-151s24-112 62-150v0l360-360 360 360c38 38 62 91 62 150s-24 112-62 151v0c-38 38-90 62-149 62s-111-24-149-62v0l-62-61-62 61c-38 38-90 62-148 62v0z" horiz-adv-x="1000" />

<glyph glyph-name="gift2" unicode="&#xe91c;" d="M768 637c18 19 30 46 30 75 0 61-49 110-108 110-45 0-149-67-190-127-43 60-146 125-189 125-59 0-108-48-108-110 0-28 10-54 27-73h-208v-263h57v-509h843v509h57v263h-211z m-78 144c36 0 67-30 67-71 0-34-24-64-55-70h-166c-10 3-13 7-13 9 0 35 122 132 167 132z m-379 0c42 0 167-97 167-132 0-3-8-7-13-9h-166c-31 6-55 36-55 70-1 39 30 71 67 71z m67-875h-259v468h259v-468z m0 507h-316v183h316v-183z m203-507h-163v690h163v-690z m300 0h-259v468h259v-468z m57 507h-316v183h316v-183z" horiz-adv-x="1000" />

<glyph glyph-name="edit" unicode="&#xe91d;" d="M952 796c-63 64-166 64-230 0l-653-653c0 0 0 0 0-1-1 0-1 0-1-1-1-1-2-3-3-4 0-1 0-1 0-2 0 0 0 0 0 0l-64-269c-1-1-1-2-1-4 0 0 0 0 0 0 0-2 1-4 1-6 0-1 1-1 1-2 1-2 2-3 3-5 2-2 4-3 6-4s5-1 7-1c2 0 3 0 4 0l269 64c1 0 1 1 1 1 1 0 2 0 2 0 2 1 3 2 4 3 0 0 1 0 1 1 0 0 1 0 1 0l652 653c64 63 64 167 0 230z m-25-25c45-45 49-116 12-166l-178 177c50 37 121 34 166-11z m-90-269l-179 179 26 26 179-180-26-25z m-747-568c-7 7-19 7-26 0l-13-14 46 194 80 9-10-93c-1 0 0-1 0-2 0 0-1-1 0-2 0 0 0-1 0-1 0-1 1-2 1-3 0-2 1-3 2-4 0 0 1-1 1-2 1-1 2-2 3-2 1-1 2-1 3-2 1 0 2-1 4-1 0 0 1-1 1-1 1 0 2 0 2 0 0 0 0 0 0 0s1 0 1 0h0c0 0 0 0 0 0 0 0 1 0 2 0l92 11-9-81-194-46 14 14c7 7 7 18 0 26z m227 99l405 405c7 7 7 18 0 25s-18 7-26 0l-405-405-86-9 10 86 405 405c7 7 7 19 0 26s-19 7-26 0l-405-405-58-7 501 501 180-179-501-501 6 58z m571 520l-179 179 26 26 179-179-26-26z" horiz-adv-x="1000" />

<glyph glyph-name="chef" unicode="&#xe91e;" d="M789 738c-32 4-65 2-97-7-45 60-116 95-192 95s-147-35-192-95c-32 9-65 11-97 7-119-15-210-117-211-237-1-112 74-210 183-237 26-6 45-28 47-55l15-151h0l8-87c4-37 50-63 70-72 3-1 5-2 7-3 54-22 112-34 170-34 58 0 116 12 170 34 12 5 73 33 77 75l8 87h0l15 151c2 27 21 49 47 55 109 27 184 125 183 237-1 120-92 222-211 237z m-132-810c-100-42-214-42-314 0-22 9-54 30-56 46l-2 22c68-33 140-49 215-49s147 16 215 49l-2-22c-2-16-34-37-56-46z m152 370c-40-10-70-44-74-85l-16-176c-69-37-143-56-219-56s-150 19-219 56l-16 176c-4 41-34 75-74 85-93 23-157 106-156 202 0 103 78 191 180 204 9 1 18 2 26 2 23 0 46-4 68-12l12-4 8 11c38 57 102 91 171 91 69 0 133-34 171-91l8-11 12 4c31 11 62 14 94 10 102-13 180-101 181-204 0-96-64-179-157-202z m-484-58c-9-1-16-10-14-19l17-138c1-9 8-15 17-15 1 0 1 0 2 0 9 1 16 10 15 19l-17 138c-1 9-10 16-20 15z m123-34c-9 0-17-8-17-18v-138c0-9 8-17 17-17 10 0 18 8 18 17v138c0 10-8 18-18 18z m227 34c-10 1-18-6-20-15l-17-138c-1-9 6-18 15-19 1 0 2 0 2 0 9 0 16 6 17 15l18 138c1 9-6 18-15 19z m-123-34c-10 0-17-8-17-18v-138c0-9 7-17 17-17 9 0 17 8 17 17v138c0 10-8 18-17 18z m-276 448c-144 1-172-116-172-117-2-9 4-19 13-21 1 0 3 0 4 0 8 0 15 5 17 13 0 1 20 92 138 90 9 1 17 8 17 17 0 10-7 18-17 18z m127 65c-7-6-9-16-3-24 6-8 17-9 24-3 1 0 73 55 152-1 3-2 7-3 10-3 6 0 11 3 14 8 6 7 4 18-4 24-80 55-161 24-193-1z" horiz-adv-x="1000" />

<glyph glyph-name="smiling-girl" unicode="&#xe91f;" d="M566 88c-36-36-95-36-132 0-7 8-19 8-26 0-8-7-8-19 0-27 25-25 59-38 92-38s67 13 93 38c7 8 7 20 0 27-8 8-20 8-27 0z m364-188c-45 49-47 175-42 304 20 19 32 44 32 73 0 25-9 48-25 66 7 132 10 221-32 302-29 56-75 103-138 139-73 42-156 63-241 60-74-3-144-38-191-96-62-4-118-37-149-89-2-5-5-9-7-14-42-82-39-170-32-302-15-18-25-41-25-66 0-29 12-54 32-73 5-129 3-255-41-304-5-5-6-11-5-17s6-11 12-14c50-19 98-25 142-25 46 0 86 7 118 16 55 14 93 35 107 43 18-3 36-4 55-4 19 0 37 1 55 4 14-8 52-29 107-43 43-12 82-16 117-16 59 0 108 12 143 25 6 3 10 8 12 14 1 6 0 12-4 17z m-91 338v94c0 0 0 1 0 1v3c25-8 43-32 43-59 0-28-18-51-43-59 0 7 0 13 0 20z m-668 390c2 4 4 8 6 12 25 43 73 70 125 70 0 0 0 0 0 0 6 1 11 3 15 8 41 53 102 85 168 88 78 2 154-17 221-55 57-33 98-74 123-123 34-66 35-137 29-259-6 3-12 5-19 6v19c0 11-8 19-19 19s-19-8-19-19v-43c-261-3-403 123-440 163-5 4-11 6-18 5-6-1-11-5-14-11-27-67-75-103-151-111-10-1-17-9-17-19v-3c-7-1-13-3-19-6-6 122-5 193 29 259z m-10-410c-25 8-43 31-43 59 0 27 18 51 43 59v-98c0-7 0-13 0-20z m-46-321c34 58 40 154 35 285 6-2 11-3 16-4 22-121 108-221 222-261-55-23-159-54-273-20z m385 39c-166 0-301 136-301 302l0 124c71 11 122 46 154 106 27-25 71-59 134-89 93-45 199-67 314-66v-75c0-166-135-302-301-302z m174-40c-25 6-46 14-62 21 114 40 200 140 222 261 5 1 11 2 16 4-5-131 1-227 35-285-67-20-138-21-211-1z m-401 398c-7-7-7-19 0-27 8-7 20-7 27 0 12 12 32 12 44 0 4-3 9-5 14-5s9 2 13 5c7 8 7 20 0 27-27 27-71 27-98 0z m454-27c7 8 7 20 0 27-27 27-71 27-98 0-7-7-7-19 0-27 8-7 20-7 27 0 12 12 32 12 44 0 4-3 9-5 13-5s10 2 14 5z" horiz-adv-x="1000" />

<glyph glyph-name="tshirt" unicode="&#xe920;" d="M995 554c-1 1-1 1-1 1l-206 183c-2 2-5 4-7 4l-149 54c-10 3-22-2-25-12-1-2-1-4-2-6 0-4-6-103-106-105-100 2-106 101-106 105-1 11-10 19-21 19-2 0-3-1-5-1l-149-54c-3-1-5-2-7-4l-205-183c-8-7-8-20-1-28 1 0 1 0 1 0l163-165v-452c0-11 9-19 20-19h622c11 0 20 8 20 19v452l163 165c8 7 8 19 1 27z m-165-137v92c0 10-9 19-20 19s-19-9-19-19v-578h-583v578c0 10-9 19-20 19s-19-9-19-19v-92l-121 123 187 167 123 44c15-78 91-130 169-114 58 11 103 56 115 114l122-44 187-167-121-123z" horiz-adv-x="1000" />

<glyph glyph-name="boy-broad-smile" unicode="&#xe921;" d="M305 265c9 0 18-4 24-10 4-4 9-6 14-6 4 0 9 2 13 6 7 7 7 19 0 27-14 13-32 21-51 21s-38-8-51-21c-8-8-8-20 0-27s19-7 26 0c7 6 16 10 25 10z m339 17c-7-8-7-20 0-27 8-7 20-7 27 0 13 13 35 13 49 0 3-4 8-6 13-6s10 2 13 6c8 7 8 19 0 27-28 28-74 28-102 0z m51-186c-107-108-282-108-390 0-7 7-19 7-27 0-7-8-7-20 0-27 61-61 142-92 222-92 80 0 161 31 222 92 7 7 7 19 0 27-7 7-19 7-27 0z m250 149c0 51-37 94-86 103v315c0 41-20 79-54 101-32 22-72 27-108 14l-118 40c-91 31-187 34-277 9-118-32-186-101-196-199-10-12-17-26-22-41l-9-27c-5-15 0-30 13-38 13-8 29-7 41 4 3 4 7 7 12 9v-187c-49-9-86-52-86-103 0-54 40-98 92-104 13-72 47-138 99-190 68-69 158-107 254-107 0 0 0 0 0 0 96 0 186 37 254 105 53 53 87 120 100 192 51 7 91 51 91 104z m-161 488c24-16 38-41 38-70v-247c-59 9-104 60-104 121l-1 207c23 6 47 3 67-11z m-668-169l4 11c9 28 31 52 58 63 28 12 59 12 86-1 57-27 126-12 168 35l5 5c7 8 6 20-2 27-8 7-19 6-26-2l-5-5c-31-35-82-45-124-26-37 17-79 18-117 2-3-1-6-3-10-5 22 59 75 100 159 123 83 23 171 20 255-9l112-38 1-97c-50-68-123-114-206-130-85-16-172 1-244 48-35 23-80 22-114-1z m-23-319c0 30 20 56 48 64v-102c0-9 0-18 1-27-28 8-49 34-49 65z m634-269c-60-61-141-95-227-95 0 0 0 0 0 0-86 0-167 34-227 96-61 62-94 143-94 230v337c10-1 21-4 30-10 81-53 178-72 272-54 77 15 146 52 199 108v-51c0-82 62-149 142-159v-175c0-86-34-167-95-227z m132 204c0 8 0 15 0 23v106c28-8 48-34 48-64 0-31-20-57-48-65z" horiz-adv-x="1000" />

<glyph glyph-name="smiling-baby" unicode="&#xe922;" d="M331 241c0-22-18-39-39-39s-40 17-40 39c0 22 18 40 40 40s39-18 39-40z m417 0c0-22-17-39-39-39s-40 17-40 39c0 22 18 40 40 40s39-18 39-40z m252 17c0 58-42 106-96 115v18c0 222-181 403-404 403-222 0-404-181-404-403v-18c-54-9-96-57-96-115 0-58 42-106 98-115 8-89 48-155 121-196 65-36 157-54 281-54 124 0 216 18 281 54 73 41 113 107 121 196 56 9 98 57 98 115z m-959 0c0 35 24 64 55 73v-146c-31 9-55 39-55 73z m821-83c0-91-33-153-101-192-59-33-144-49-261-49s-202 16-261 49c-68 39-101 101-101 192v216c0 163 109 302 258 347 114-2 174-84 174-143 0-46-37-83-82-83-34 0-62 28-62 62 0 25 20 46 45 46 12 0 21 9 21 20s-9 21-21 21c-48 0-87-39-87-87 0-57 47-103 104-103 68 0 123 56 123 124 0 43-21 89-57 123-15 14-31 26-49 35 197-3 357-164 357-362v-216z m42 10v146c31-9 55-38 55-73s-24-64-55-73z m-324-1c-44-44-116-44-160 0-8 8-21 8-29 0-8-8-8-21 0-29 30-30 70-45 109-45s79 15 109 45c8 8 8 21 0 29-8 8-21 8-29 0z" horiz-adv-x="1000" />

<glyph glyph-name="menu-button-of-three-lines-outline" unicode="&#xe923;" d="M871 571h-742c-71 0-129 58-129 129s58 129 129 129h742c71 0 129-58 129-129s-58-129-129-129z m-742 197c-38 0-68-31-68-68s30-68 68-68h742c38 0 68 30 68 68s-30 68-68 68h-742z m742-909h-742c-71 0-129 58-129 129s58 129 129 129h742c71 0 129-58 129-129s-58-129-129-129z m-742 197c-38 0-68-31-68-68s30-69 68-69h742c38 0 68 31 68 69s-30 68-68 68h-742z m742 151h-742c-71 0-129 58-129 129 0 71 58 129 129 129h742c71 0 129-58 129-129 0-71-58-129-129-129z m-742 197c-38 0-68-30-68-68 0-37 30-68 68-68h742c38 0 68 31 68 68 0 38-30 68-68 68h-742z" horiz-adv-x="1000" />

<glyph glyph-name="spinner" unicode="&#xf110;" d="M294 72q0-29-21-50t-51-21q-29 0-50 21t-21 50q0 30 21 51t50 21 51-21 21-51z m277-115q0-29-20-50t-51-21-50 21-21 50 21 51 50 21 51-21 20-51z m-392 393q0-30-21-50t-51-21-50 21-21 50 21 51 50 20 51-20 21-51z m670-278q0-29-21-50t-50-21q-30 0-51 21t-20 50 20 51 51 21 50-21 21-51z m-538 556q0-37-26-63t-63-26-63 26-26 63 26 63 63 26 63-26 26-63z m653-278q0-30-21-50t-50-21-51 21-21 50 21 51 51 20 50-20 21-51z m-357 393q0-45-31-76t-76-31-76 31-31 76 31 76 76 31 76-31 31-76z m296-115q0-52-37-88t-88-37q-52 0-88 37t-37 88q0 51 37 88t88 37q51 0 88-37t37-88z" horiz-adv-x="1000" />

<glyph glyph-name="sliders" unicode="&#xf1de;" d="M196 64v-71h-196v71h196z m197 72q14 0 25-11t11-25v-143q0-14-11-25t-25-11h-143q-14 0-25 11t-11 25v143q0 15 11 25t25 11h143z m89 214v-71h-482v71h482z m-357 286v-72h-125v72h125z m732-572v-71h-411v71h411z m-536 643q15 0 26-10t10-26v-142q0-15-10-25t-26-11h-142q-15 0-25 11t-11 25v142q0 15 11 26t25 10h142z m358-286q14 0 25-10t10-25v-143q0-15-10-25t-25-11h-143q-15 0-25 11t-11 25v143q0 14 11 25t25 10h143z m178-71v-71h-125v71h125z m0 286v-72h-482v72h482z" horiz-adv-x="857.1" />

<glyph glyph-name="shopping-basket" unicode="&#xf291;" d="M1071 421q30 0 51-20t21-51-21-50-51-21h-8l-64-370q-5-26-25-42t-45-17h-715q-25 0-45 17t-25 42l-64 370h-9q-29 0-50 21t-21 50 21 51 50 20h1000z m-800-446q14 1 24 13t9 26l-18 232q-1 14-13 24t-26 9-24-13-9-26l18-232q1-14 12-24t24-9h3z m229 36v232q0 14-11 25t-25 11-25-11-10-25v-232q0-15 10-25t25-11 25 11 11 25z m214 0v232q0 14-10 25t-25 11-25-11-11-25v-232q0-15 11-25t25-11 25 11 10 25z m197-3l18 232q1 15-9 26t-24 13-26-9-13-24l-18-232q-1-15 9-26t24-13h3q14 0 24 9t12 24z m-645 679l-52-230h-74l56 246q11 49 50 80t89 31h94q0 15 10 25t25 11h215q14 0 25-11t10-25h94q50 0 89-31t49-80l57-246h-74l-52 230q-6 25-25 40t-44 16h-94q0-15-10-25t-25-11h-215q-14 0-25 11t-10 25h-94q-25 0-44-16t-25-40z" horiz-adv-x="1142.9" />

<glyph glyph-name="long-arrow-alt-down" unicode="&#xf309;" d="M328 174h90c42 0 63-50 33-80l-168-168c-18-18-48-18-66 0l-168 168c-30 30-9 80 33 80h90v590c0 13 10 24 23 24h110c13 0 23-11 23-24v-590z" horiz-adv-x="498" />

<glyph glyph-name="long-arrow-alt-left" unicode="&#xf30a;" d="M262 272v-90c0-42-51-63-80-33l-168 168c-19 18-19 48 0 66l168 168c29 30 80 9 80-33v-90h590c13 0 23-10 23-23v-110c0-13-10-23-23-23h-590z" horiz-adv-x="875" />

<glyph glyph-name="long-arrow-alt-right" unicode="&#xf30b;" d="M613 428v90c0 42 51 63 80 33l168-168c19-18 19-48 0-66l-168-168c-29-30-80-9-80 33v90h-590c-12 0-23 10-23 23v110c0 13 11 23 23 23h590z" horiz-adv-x="875" />

<glyph glyph-name="long-arrow-alt-up" unicode="&#xf30c;" d="M172 526h-90c-42 0-63 50-33 80l168 168c18 18 48 18 66 0l168-168c30-30 9-80-33-80h-90v-590c0-13-10-24-23-24h-110c-13 0-23 11-23 24v590z" horiz-adv-x="500" />

<glyph glyph-name="up-open" unicode="&#xf800;" d="M564 280q16-16 16-41t-16-41q-38-38-78 0l-196 188-196-188q-40-38-78 0-16 16-16 41t16 41l234 224q16 16 40 16t40-16z" horiz-adv-x="580" />

<glyph glyph-name="right-open" unicode="&#xf801;" d="M98 626l226-236q16-16 16-40 0-22-16-38l-226-236q-16-16-40-16t-40 16q-36 36 0 80l186 194-186 196q-36 44 0 80 16 16 41 16t39-16z" horiz-adv-x="340" />

<glyph glyph-name="left-open" unicode="&#xf802;" d="M242 626q14 16 39 16t41-16q38-36 0-80l-186-196 186-194q38-44 0-80-16-16-40-16t-40 16l-226 236q-16 16-16 38 0 24 16 40 206 214 226 236z" horiz-adv-x="341" />

<glyph glyph-name="down-open" unicode="&#xf803;" d="M564 422l-234-224q-18-18-40-18t-40 18l-234 224q-16 16-16 41t16 41q38 38 78 0l196-188 196 188q40 38 78 0 16-16 16-41t-16-41z" horiz-adv-x="580" />

<glyph glyph-name="up-open-mini" unicode="&#xf804;" d="M62 230q-26-22-50 0-24 24 0 50l196 190q26 26 48 0l196-190q24-26 0-50-24-22-50 0l-170 158z" horiz-adv-x="464" />

<glyph glyph-name="right-open-mini" unicode="&#xf805;" d="M13 180l158 170-158 172q-26 26 0 48 26 26 48 0l192-194q24-26 0-50l-192-194q-22-26-48 0-26 22 0 48z" horiz-adv-x="265" />

<glyph glyph-name="left-open-mini" unicode="&#xf806;" d="M252 180q26-26 0-48-26-26-48 0l-192 194q-24 24 0 50l192 194q22 26 48 0 26-22 0-48l-156-172z" horiz-adv-x="265" />

<glyph glyph-name="down-open-mini" unicode="&#xf807;" d="M405 470q22 26 48 0 26-22 0-48l-196-192q-22-22-48 0l-196 192q-26 26 0 48 24 24 50 0l170-156z" horiz-adv-x="466" />

<glyph glyph-name="up-open-big" unicode="&#xf808;" d="M804 130l-372 358-370-358q-26-22-50 0-24 24 0 50l396 390q26 26 48 0l396-390q24-26 0-50-26-22-48 0z" horiz-adv-x="864" />

<glyph glyph-name="right-open-big" unicode="&#xf809;" d="M13-20l358 370-358 372q-26 26 0 48 26 26 48 0l392-394q24-26 0-50l-392-394q-22-26-48 0-26 22 0 48z" horiz-adv-x="465" />

<glyph glyph-name="left-open-big" unicode="&#xf80a;" d="M452-20q26-26 0-48-26-26-48 0l-392 394q-24 24 0 50l392 394q22 26 48 0 26-22 0-48l-358-372z" horiz-adv-x="465" />

<glyph glyph-name="down-open-big" unicode="&#xf80b;" d="M63 570l370-356 372 356q22 26 48 0 26-22 0-48l-396-392q-22-22-48 0l-396 392q-26 26 0 48 24 24 50 0z" horiz-adv-x="866" />

<glyph glyph-name="up-open-huge" unicode="&#xf80c;" d="M939 107l-92-92q-11-10-26-10t-25 10l-296 297-296-297q-11-10-25-10t-25 10l-93 92q-11 11-11 26t11 25l414 414q11 10 25 10t25-10l414-414q11-11 11-25t-11-26z" horiz-adv-x="1000" />

<glyph glyph-name="right-open-huge" unicode="&#xf80d;" d="M618 361l-414-415q-11-10-25-10t-25 10l-93 93q-11 11-11 25t11 25l296 297-296 296q-11 11-11 25t11 25l93 93q10 11 25 11t25-11l414-414q10-11 10-25t-10-25z" horiz-adv-x="714.3" />

<glyph glyph-name="left-open-huge" unicode="&#xf80e;" d="M654 682l-297-296 297-297q10-10 10-25t-10-25l-93-93q-11-10-25-10t-25 10l-414 415q-11 10-11 25t11 25l414 414q10 11 25 11t25-11l93-93q10-10 10-25t-10-25z" horiz-adv-x="714.3" />

<glyph glyph-name="down-open-huge" unicode="&#xf80f;" d="M939 399l-414-413q-10-11-25-11t-25 11l-414 413q-11 11-11 26t11 25l93 92q10 11 25 11t25-11l296-296 296 296q11 11 25 11t26-11l92-92q11-11 11-25t-11-26z" horiz-adv-x="1000" />

<glyph glyph-name="basket" unicode="&#xf814;" d="M357-7q0-29-21-50t-50-22-50 22-22 50 22 50 50 21 50-21 21-50z m500 0q0-29-21-50t-50-22-50 22-22 50 22 50 50 21 50-21 21-50z m72 607v-286q0-13-10-23t-22-12l-583-68q7-34 7-40 0-8-13-35h513q15 0 26-11t10-25-10-25-26-11h-571q-14 0-25 11t-11 25q0 6 5 18t9 20 12 22 8 17l-98 459h-114q-15 0-25 10t-11 25 11 26 25 10h143q9 0 16-3t10-9 8-14 4-14 3-17 3-14h670q14 0 25-11t11-25z" horiz-adv-x="928.6" />

<glyph glyph-name="mini-cart" unicode="&#xf815;" d="M225 600c0 25 19 45 43 45 25 0 45-20 45-45 0-23-20-43-45-43-24 0-43 20-43 43z m478 0c0 25 20 45 43 45 24 0 43-20 43-45 0-23-19-43-43-43-23 0-43 20-43 43z m-488 121c-65 0-115-55-115-121l-67-566c0-67 51-122 114-122l707 0c62 0 113 55 113 122l-67 566c0 66-50 121-115 121z m553 0c-26 110-135 192-266 192-131 0-240-82-266-192l80 0c24 70 98 123 186 123 88 0 162-53 186-123z" horiz-adv-x="1000" />

<glyph glyph-name="heart" unicode="&#xf816;" d="M500-79q-14 0-25 10l-348 336q-5 5-15 15t-31 37-38 54-30 67-13 77q0 123 71 192t196 70q34 0 70-12t67-33 54-38 42-38q20 20 42 38t54 38 67 33 70 12q125 0 196-70t71-192q0-123-128-251l-347-335q-10-10-25-10z" horiz-adv-x="1000" />

<glyph glyph-name="search" unicode="&#xf818;" d="M746 209l254-255-105-105-254 254q-106-72-232-72-169 0-289 120t-120 289 120 289 289 120 289-120 120-289q0-127-72-231z m-65 231q0 113-79 193t-193 80-193-80-80-193 80-192 193-80 193 80 79 192z" horiz-adv-x="1000" />

<glyph glyph-name="cancel" unicode="&#xf819;" d="M724 112q0-22-15-38l-76-76q-16-15-38-15t-38 15l-164 165-164-165q-16-15-38-15t-38 15l-76 76q-16 16-16 38t16 38l164 164-164 164q-16 16-16 38t16 38l76 76q16 16 38 16t38-16l164-164 164 164q16 16 38 16t38-16l76-76q15-15 15-38t-15-38l-164-164 164-164q15-15 15-38z" horiz-adv-x="785.7" />

<glyph glyph-name="cancel-mini" unicode="&#xf81a;" d="M452 194q18-18 18-43t-18-43q-18-16-43-16t-43 16l-132 152-132-152q-18-16-43-16t-43 16q-16 18-16 43t16 43l138 156-138 158q-16 18-16 43t16 43q18 16 43 16t43-16l132-152 132 152q18 16 43 16t43-16q18-18 18-43t-18-43l-138-158z" horiz-adv-x="470" />

<glyph glyph-name="up-dir" unicode="&#xf820;" d="M571 171q0-14-10-25t-25-10h-500q-15 0-25 10t-11 25 11 26l250 250q10 10 25 10t25-10l250-250q10-11 10-26z" horiz-adv-x="571.4" />

<glyph glyph-name="right-dir" unicode="&#xf821;" d="M321 350q0-14-10-25l-250-250q-11-11-25-11t-25 11-11 25v500q0 15 11 25t25 11 25-11l250-250q10-10 10-25z" horiz-adv-x="357.1" />

<glyph glyph-name="left-dir" unicode="&#xf822;" d="M357 600v-500q0-14-10-25t-26-11-25 11l-250 250q-10 11-10 25t10 25l250 250q11 11 25 11t26-11 10-25z" horiz-adv-x="357.1" />

<glyph glyph-name="down-dir" unicode="&#xf823;" d="M571 457q0-14-10-25l-250-250q-11-11-25-11t-25 11l-250 250q-11 11-11 25t11 25 25 11h500q14 0 25-11t10-25z" horiz-adv-x="571.4" />

<glyph glyph-name="phone" unicode="&#xf824;" d="M786 158q0-15-6-39t-12-38q-11-28-68-60-52-28-103-28-15 0-30 2t-32 7-26 8-31 11-28 10q-54 20-97 47-71 44-148 120t-120 148q-27 43-46 97-2 5-10 28t-12 31-8 26-7 32-2 29q0 52 29 104 31 57 59 68 14 6 38 12t39 6q8 0 12-2 10-3 30-42 6-11 16-31t20-35 17-30q2-2 10-14t12-20 4-16q0-11-16-27t-35-31-34-30-16-25q0-5 3-13t4-11 8-14 7-10q42-77 97-132t131-97q1 0 10-6t14-8 11-5 13-2q10 0 25 16t30 34 31 35 28 16q7 0 15-4t20-12 14-10q14-8 30-17t36-20 30-17q39-19 42-29 2-4 2-12z" horiz-adv-x="785.7" />

<glyph glyph-name="pencil" unicode="&#xf825;" d="M203-7l50 51-131 131-51-51v-60h72v-71h60z m291 518q0 12-12 12-5 0-9-4l-303-302q-4-4-4-10 0-12 13-12 5 0 9 4l303 302q3 4 3 10z m-30 107l232-232-464-465h-232v233z m381-54q0-29-20-50l-93-93-232 233 93 92q20 21 50 21 29 0 51-21l131-131q20-22 20-51z" horiz-adv-x="857.1" />

</font>
</defs>
</svg>
